<?xml version="1.0" standalone="no"?>
<!DOCTYPE svg PUBLIC "-//W3C//DTD SVG 1.1//EN" "http://www.w3.org/Graphics/SVG/1.1/DTD/svg11.dtd" >
<svg xmlns="http://www.w3.org/2000/svg">
<metadata>Generated by IcoMoon</metadata>
<defs>
<font id="im-line-icons" horiz-adv-x="1024">
<font-face units-per-em="1024" ascent="960" descent="-64" />
<missing-glyph horiz-adv-x="1024" />
<glyph unicode="&#x20;" horiz-adv-x="512" d="" />
<glyph unicode="&#xe900;" glyph-name="ArrowDown16" d="M512 237.312v530.688h64v-530.688l265.301 265.387c6.059 5.973 14.165 9.387 22.699 9.387 17.579 0 32.085-14.507 32.085-32.085 0-8.533-3.413-16.64-9.387-22.699l-320-320c-6.059-5.973-14.165-9.387-22.699-9.387s-16.64 3.413-22.699 9.387l-320 320c-6.229 6.059-9.728 14.336-9.728 23.040 0 17.579 14.421 32 32 32 0 0 0.085 0 0.085 0 8.704 0 16.981-3.499 23.040-9.643l265.301-265.387z" />
<glyph unicode="&#xe901;" glyph-name="ArrowUp16" d="M512 658.688l-265.301-265.387c-6.059-5.973-14.165-9.387-22.699-9.387-17.579 0-32.085 14.507-32.085 32.085 0 8.533 3.413 16.64 9.387 22.699l320 320c5.888 5.803 13.909 9.216 22.187 9.301 8.704 0.171 17.067-3.243 23.211-9.301l320-320c5.973-6.059 9.387-14.165 9.387-22.699 0-17.579-14.507-32.085-32.085-32.085-8.533 0-16.64 3.413-22.699 9.387l-265.301 265.387v-530.688h-64v530.688z" />
<glyph unicode="&#xe902;" glyph-name="Collapse16" d="M286.635 576.341c-17.067-0.597-30.805-14.848-30.805-32 0-7.851 2.901-15.445 8.192-21.333l224-256c6.059-6.912 14.763-10.837 23.979-10.837s17.92 3.925 23.979 10.837l224 256c6.229 6.059 9.813 14.336 9.813 23.040 0 17.493-14.507 32-32 32-10.155 0-19.797-4.864-25.771-13.056l-200.021-228.523-200.021 228.523c-6.229 7.424-15.616 11.605-25.344 11.349z" />
<glyph unicode="&#xe903;" glyph-name="CollapseCircle16" d="M286.667 576.333c-17.163-0.649-30.831-14.719-30.831-31.982 0-8.219 3.098-15.714 8.19-21.381l-0.026 0.030 224-256c5.893-6.657 14.459-10.832 24-10.832s18.107 4.175 23.971 10.799l0.029 0.034 224 256c6.028 5.828 9.771 13.987 9.771 23.020 0 17.675-14.328 32.003-32.003 32.003-10.531 0-19.875-5.087-25.707-12.938l-0.061-0.086-200-228.5-200 228.5c-5.908 6.959-14.664 11.346-24.443 11.346-0.313 0-0.625-0.004-0.936-0.013l0.046 0.001zM512 896c-247.045 0-448-200.955-448-448s200.955-448 448-448c247.045 0 448 200.955 448 448s-200.955 448-448 448zM512 832c212.456 0 384-171.544 384-384s-171.544-384-384-384c-212.456 0-384 171.544-384 384s171.544 384 384 384z" />
<glyph unicode="&#xe904;" glyph-name="Cross16" d="M287.667 704.333c-0.023 0-0.050 0-0.077 0-17.675 0-32.003-14.328-32.003-32.003 0-9.022 3.733-17.171 9.738-22.989l201.341-201.341-201.333-201.333c-5.802-5.801-9.391-13.816-9.391-22.669 0-17.704 14.352-32.056 32.056-32.056 8.853 0 16.868 3.589 22.669 9.391l201.333 201.333 201.333-201.333c5.801-5.802 13.816-9.391 22.669-9.391 17.704 0 32.056 14.352 32.056 32.056 0 8.853-3.589 16.868-9.391 22.669l-201.333 201.333 201.333 201.333c6.025 5.827 9.766 13.985 9.766 23.016 0 17.675-14.328 32.003-32.003 32.003-0.386 0-0.769-0.007-1.152-0.020l0.055 0.002c-8.646-0.26-16.392-3.91-21.993-9.66l-201.34-201.34-201.333 201.333c-5.819 5.966-13.937 9.667-22.919 9.667-0.028 0-0.057 0-0.085 0h0.004z" />
<glyph unicode="&#xe905;" glyph-name="CrossCircle16" d="M351.667 640.333c-0.023 0-0.050 0-0.077 0-17.675 0-32.003-14.328-32.003-32.003 0-9.022 3.733-17.171 9.738-22.989l137.341-137.341-137.333-137.333c-5.802-5.801-9.391-13.816-9.391-22.669 0-17.704 14.352-32.056 32.056-32.056 8.853 0 16.868 3.589 22.669 9.391l137.333 137.333 137.333-137.333c5.801-5.802 13.816-9.391 22.669-9.391 17.704 0 32.056 14.352 32.056 32.056 0 8.853-3.589 16.868-9.391 22.669l-137.333 137.333 137.333 137.333c6.025 5.827 9.766 13.985 9.766 23.016 0 17.675-14.328 32.003-32.003 32.003-0.386 0-0.769-0.007-1.152-0.020l0.055 0.002c-8.646-0.26-16.392-3.91-21.993-9.66l-137.34-137.34-137.333 137.333c-5.819 5.966-13.937 9.667-22.919 9.667-0.028 0-0.057 0-0.085 0h0.004zM512 896c-247.045 0-448-200.955-448-448s200.955-448 448-448c247.045 0 448 200.955 448 448s-200.955 448-448 448zM512 832c212.456 0 384-171.544 384-384s-171.544-384-384-384c-212.456 0-384 171.544-384 384s171.544 384 384 384z" />
<glyph unicode="&#xe906;" glyph-name="DotsHorizontal16" d="M320 448c0-35.346-28.654-64-64-64v0c-35.346 0-64 28.654-64 64v0c0 35.346 28.654 64 64 64v0c35.346 0 64-28.654 64-64v0zM576 448c0-35.346-28.654-64-64-64v0c-35.346 0-64 28.654-64 64v0c0 35.346 28.654 64 64 64v0c35.346 0 64-28.654 64-64v0zM832 448c0-35.346-28.654-64-64-64v0c-35.346 0-64 28.654-64 64v0c0 35.346 28.654 64 64 64v0c35.346 0 64-28.654 64-64v0z" />
<glyph unicode="&#xe907;" glyph-name="DotsVerticall16" d="M576 704c0-35.328-28.672-64-64-64s-64 28.672-64 64c0 35.328 28.672 64 64 64s64-28.672 64-64zM576 448c0-35.328-28.672-64-64-64s-64 28.672-64 64c0 35.328 28.672 64 64 64s64-28.672 64-64zM576 192c0-35.328-28.672-64-64-64s-64 28.672-64 64c0 35.328 28.672 64 64 64s64-28.672 64-64z" />
<glyph unicode="&#xe908;" glyph-name="Edit16" d="M767.5 962.333c-8.664-0.119-16.477-3.662-22.168-9.334l-648.166-648.332c-5.144-5.097-8.566-11.923-9.323-19.534l-0.011-0.133-23.667-249.833c-0.089-0.894-0.139-1.933-0.139-2.984 0-17.675 14.328-32.003 32.003-32.003 1.104 0 2.196 0.056 3.271 0.165l-0.135-0.011 249.833 23.5c7.744 0.767 14.57 4.19 19.664 9.331l648.335 648.169c5.814 5.795 9.411 13.811 9.411 22.667s-3.597 16.872-9.41 22.666l-226.334 226.334c-5.788 5.771-13.775 9.338-22.595 9.338-0.201 0-0.402-0.002-0.602-0.006h0.030zM768 885l181-181-617.5-617.5-199.833-18.833 18.833 199.833zM684.5 846.833l-45.167-45.167 226.333-226.333 45.167 45.167zM576 64v-64h384v64z" />
<glyph unicode="&#xe909;" glyph-name="Expand16" d="M416.667 704.333c-0.265 0.008-0.577 0.012-0.891 0.012-17.675 0-32.003-14.328-32.003-32.003 0-9.725 4.338-18.437 11.184-24.306l0.043-0.036 228.5-200-228.5-200c-7.936-5.893-13.023-15.236-13.023-25.768 0-17.675 14.328-32.003 32.003-32.003 9.033 0 17.192 3.743 23.011 9.762l0.009 0.009 256 224c6.657 5.893 10.832 14.459 10.832 24s-4.175 18.107-10.799 23.971l-0.034 0.029-256 224c-5.371 4.911-12.461 8.021-20.272 8.331l-0.062 0.002z" />
<glyph unicode="&#xe90a;" glyph-name="ExpandCircle16" d="M416.667 704.333c-0.265 0.008-0.577 0.012-0.891 0.012-17.675 0-32.003-14.328-32.003-32.003 0-9.725 4.338-18.437 11.184-24.306l0.043-0.036 228.5-200-228.5-200c-7.936-5.893-13.023-15.236-13.023-25.768 0-17.675 14.328-32.003 32.003-32.003 9.033 0 17.192 3.743 23.011 9.762l0.009 0.009 256 224c6.657 5.893 10.832 14.459 10.832 24s-4.175 18.107-10.799 23.971l-0.034 0.029-256 224c-5.371 4.911-12.461 8.021-20.272 8.331l-0.062 0.002zM512 896c-247.045 0-448-200.955-448-448s200.955-448 448-448c247.045 0 448 200.955 448 448s-200.955 448-448 448zM512 832c212.456 0 384-171.544 384-384s-171.544-384-384-384c-212.456 0-384 171.544-384 384s171.544 384 384 384z" />
<glyph unicode="&#xe90b;" glyph-name="Hidden16" d="M95.667 896.333c-0.023 0-0.050 0-0.077 0-17.675 0-32.003-14.328-32.003-32.003 0-9.022 3.733-17.171 9.738-22.989l832.008-832.008c5.801-5.802 13.816-9.391 22.669-9.391 17.704 0 32.056 14.352 32.056 32.056 0 8.853-3.589 16.868-9.391 22.669l-147.167 147.167c44.093 21.699 86.001 47.948 123.333 79.833 48.136 42.522 94.534 97.809 97.167 165 0.021 61.434-39.454 114.067-80.833 155.833-109.365 105.393-261.032 162.949-412.167 165.5-2.782 0.039-5.551-0.506-8.333-0.5-1.394 0.047-2.771 0.311-4.167 0.333-15.995 0.462-31.896-0.918-47.667-3.5-16.434-1.136-33.010-0.814-49.333-3-40.185-6.28-81.005-13.045-118.833-28.333-6.686-3.35-11.42-8.768-16.167-14.167l-167.833 167.833c-5.819 5.966-13.937 9.667-22.919 9.667-0.028 0-0.057 0-0.085 0h0.004zM511 703.667c10.102 0.076 20.343-0.357 30.333-1.833 75.906-10.752 141.273-71.623 157.667-146.5 16.346-67.333-7.892-142.097-60.333-187.333-30.166 30.394-60.182 60.926-90.333 91.333 16.8 11.697 27.66 30.913 27.667 52.666v0.001c0 35.346-28.654 64-64 64v0c-21.545-0.002-40.603-10.649-52.2-26.969l-0.133-0.197c-9.28 9.388-18.56 18.772-27.833 28.167 35.249 28.519 50.527 78.739 36.833 122 9.938 2.293 20.114 3.169 30.333 3.833 3.997 0.139 8.011 0.759 12 0.833zM401.667 692c1.322-2.163 3.034-4.14 4-6.5 10.285-22.321 0.142-49.146-19.5-62.333-17.527 17.807-35.175 35.491-52.667 53.333 22.005 7.018 45.094 11.273 68.167 15.5zM714.833 668.167c35.718-13.095 70.492-28.463 102.833-48.5 54.291-34.941 107.851-78.291 135.167-138.333 15.126-31.156 3.618-67.24-15.5-93.833-44.566-62.995-111.688-106.257-180.333-139.167-24.464 24.705-48.846 49.484-73.333 74.167 17.488 15.856 32.999 33.97 45.5 54 49.994 78.106 51.711 183.697 4.5 263.5-5.596 9.85-11.94 19.226-18.833 28.167z" />
<glyph unicode="&#xe90c;" glyph-name="Left16" d="M964.779 959.829c36.287-1.719 63.924-37.778 59.221-73.228-0.281-297.9 0.562-595.844-0.421-893.716-2.982-36.413-40.077-62.053-75.328-56.885-148.593 0.456-297.267-0.912-445.808 0.683-35.342 4.432-59.377 40.656-54.443 75.066 0.281 297.117-0.562 594.277 0.421 891.366 2.982 36.413 40.077 62.053 75.328 56.885 147.009-0.114 294.026 0.228 441.030-0.171zM512 896c0-298.667 0-597.333 0-896 149.333 0 298.667 0 448 0 0 298.667 0 597.333 0 896-149.333 0-298.667 0-448 0zM324.779 959.829c35.994-1.726 63.703-37.317 59.221-72.578-0.269-298.063 0.538-596.167-0.404-894.204-2.885-36.106-39.452-61.999-74.533-57.047-84.863 0.461-169.809-0.919-254.621 0.683-34.97 4.412-59.159 40.072-54.443 74.254 0.269 297.334-0.538 594.709 0.404 892.017 2.885 36.106 39.452 61.999 74.533 57.047 83.28-0.115 166.568 0.229 249.842-0.171zM64 896c0-298.667 0-597.333 0-896 85.333 0 170.667 0 256 0 0 298.667 0 597.333 0 896-85.333 0-170.667 0-256 0zM128 768v-64h128v64zM128 576v-64h128v64zM128 384v-64h128v64zM128 192v-64h128v64z" />
<glyph unicode="&#xe90d;" glyph-name="New16" d="M205.167 960c-43.639 7.919-85.671-33.574-76.738-77.528-0.919-296.413-0.186-593.008-0.39-889.308 4.539-43.607 49.948-63.865 89.228-56.801 227.647-1.032 455.461 0.299 683.005-0.649 52.274 3.732 66.912 59.809 59.376 103.359 0.708 212.043 0.35 424.092 0.196 636.126-5.954 25.661-32.67 39.058-48.414 58.704-74.051 73.435-146.949 148.179-221.717 220.799-24.319 10.698-52.509 2.928-78.486 5.297-135.344-0.234-270.707 0.005-406.060 0zM192 896c149.333 0 298.667 0 448 0 0-85.333 0-170.667 0-256 85.333 0 170.667 0 256 0 0-213.333 0-426.667 0-640-234.667 0-469.333 0-704 0 0 298.667 0 597.333 0 896zM704 850.667c49.167-49.167 98.333-98.333 147.5-147.5-46.105 6.060-114.76-10.757-147.5 8.76 0 46.247 0 92.493 0 138.74z" />
<glyph unicode="&#xe90e;" glyph-name="Open16" d="M32 896c-17.672-0.002-31.998-14.328-32-32v0-798.833c0.003-0.843-0.037-1.658 0-2.5 0.147-5.405 1.612-10.437 4.083-14.827l-0.083 0.161c6.991-24.487 26.226-45.644 53-47.5 229.925-0.998 459.879-0.21 689.833-0.5 28.949-3.208 62.452 4.524 76.833 32.5 65.451 150.37 129.311 301.51 194.167 452.167 19.945 38.35-9.89 89.698-53.167 91.167-22.89 0.040-45.777-0.026-68.667 0 0 0.025 0 0.054 0 0.083s0 0.059 0 0.088v-0.005 160c-0.002 17.672-14.328 31.998-32 32h-370.667l-118.667 118.667c-5.787 5.768-13.772 9.333-22.59 9.333-0.027 0-0.054 0-0.081 0h-319.996zM64 832h274.667l118.667-118.667c5.787-5.768 13.772-9.333 22.59-9.333 0.027 0 0.054 0 0.081 0h351.996v-128c0-0.025 0-0.054 0-0.083s0-0.059 0-0.088v0.005c-184.955 0.127-369.878 0.075-554.833 0.167-28.949 3.208-62.452-4.524-76.833-32.5-45.938-105.531-91.059-211.483-136.333-317.333v605.833zM256 512h704l-192-448h-704l192 448z" />
<glyph unicode="&#xe90f;" glyph-name="Relation16" d="M1024-63.232v639.403c-32.256 0.256-62.208-26.795-63.829-59.307-0.085-25.259 0-50.432 0-75.691-46.507-8.96-91.221-27.307-127.659-57.856-29.611-24.491-51.968-58.539-60.331-96.171-11.776 1.877-24.917 0.597-36.011 2.048-57.003 2.987-118.955 21.077-152.149 70.997-48.469 72.277-51.541 167.595-112.043 233.131-53.333 60.757-138.325 78.336-215.637 78.677-1.365 0.085-2.389-0.939-3.669-1.024-7.339 33.109-26.112 63.573-50.688 86.869-37.888 36.011-86.869 57.771-137.984 67.669 0 22.187 0 44.288 0 66.475 2.731 34.219-25.941 66.731-60.331 67.84-1.195 0-2.475 0.085-3.669 0.085v-640.085c32.256-0.256 62.208 26.795 63.829 59.307 0.085 25.259 0 50.432 0 75.691 46.507 8.96 91.221 27.307 127.659 57.856 29.611 24.491 52.053 58.624 60.331 96.341 13.653-2.389 29.099-0.085 42.496-2.816 53.845-3.925 111.275-23.381 141.824-70.741 46.592-71.595 50.603-164.608 109.056-229.632 53.248-62.464 139.435-81.237 217.941-81.835 2.987-0.512 5.376 0.853 8.192 1.195 7.509-34.304 27.392-65.707 53.163-89.344 37.632-34.645 85.504-55.381 135.509-65.024 0-21.419 0-42.752 0-64.171-3.157-31.488 19.285-63.232 50.688-69.12 4.523-0.512 8.96-0.683 13.312-0.768zM960 376.32v-240.64c-8.533 1.963-16.896 4.608-25.173 7.509-38.827 14.251-76.8 39.168-94.976 77.653-12.544 26.539-9.301 58.709 6.827 83.029 25.003 38.229 67.755 60.757 111.019 71.936l2.304 0.512zM64 760.32c9.728-2.304 19.285-5.12 28.672-8.619 37.803-14.592 74.752-39.595 91.989-77.568 12.629-27.221 8.277-60.331-8.96-84.651-25.856-37.205-68.608-59.221-111.701-69.803v240.64z" />
<glyph unicode="&#xe910;" glyph-name="Right16" d="M516.779 959.829c36.297-1.705 63.919-37.781 59.221-73.228-0.281-297.9 0.562-595.844-0.421-893.716-2.983-36.419-40.070-62.057-75.328-56.885-148.593 0.456-297.267-0.912-445.808 0.683-35.342 4.432-59.377 40.656-54.443 75.066 0.281 297.117-0.562 594.277 0.421 891.366 2.982 36.413 40.077 62.053 75.328 56.885 147.009-0.114 294.026 0.228 441.030-0.171zM64 896c0-298.667 0-597.333 0-896 149.333 0 298.667 0 448 0 0 298.667 0 597.333 0 896-149.333 0-298.667 0-448 0zM964.779 959.829c36.004-1.712 63.697-37.32 59.221-72.578-0.269-298.063 0.538-596.167-0.404-894.204-2.885-36.112-39.445-62.004-74.533-57.047-84.863 0.461-169.809-0.919-254.621 0.683-34.97 4.412-59.159 40.072-54.443 74.254 0.269 297.334-0.538 594.709 0.404 892.017 2.885 36.106 39.452 61.999 74.533 57.047 83.28-0.115 166.568 0.229 249.842-0.171zM704 896c0-298.667 0-597.333 0-896 85.333 0 170.667 0 256 0 0 298.667 0 597.333 0 896-85.333 0-170.667 0-256 0zM768 768v-64h128v64zM768 576v-64h128v64zM768 384v-64h128v64zM768 192v-64h128v64z" />
<glyph unicode="&#xe911;" glyph-name="Save16" d="M776.021 959.829l4.523-0.427 4.437-0.853 4.437-1.109 4.267-1.365 4.181-1.707 4.011-2.048 3.925-2.304 3.755-2.56 3.499-2.816 3.328-2.987 188.501-185.429 3.157-3.328 2.901-3.584 2.645-3.755 2.389-3.925 2.133-4.181 1.792-4.181 1.451-4.437 1.109-4.437 0.853-4.523 0.512-4.608 0.171-4.608v-710.656l-0.171-4.779-0.512-4.779-0.939-4.693-1.195-4.608-1.621-4.523-1.877-4.352-2.219-4.267-2.56-4.011-2.901-3.925-3.072-3.584-3.413-3.413-3.584-3.072-3.925-2.901-4.011-2.56-4.267-2.219-4.352-1.877-4.523-1.621-4.608-1.195-4.693-0.939-4.779-0.512-4.779-0.171-905.557 0.683-4.693 0.939-4.608 1.195-4.523 1.621-4.352 1.877-4.267 2.219-4.011 2.56-3.925 2.901-3.584 3.072-3.413 3.413-3.072 3.584-2.901 3.925-2.56 4.011-2.219 4.267-1.877 4.352-1.621 4.523-1.195 4.608-0.939 4.693-0.512 4.779-0.171 4.779v896l0.171 4.779 0.512 4.779 0.939 4.693 1.195 4.608 1.621 4.523 1.877 4.352 2.219 4.267 2.56 4.011 2.901 3.925 3.072 3.584 3.413 3.413 3.584 3.072 3.925 2.901 4.011 2.56 4.267 2.219 4.352 1.877 4.523 1.621 4.608 1.195 4.693 0.939 4.779 0.512 4.779 0.171 712.021-0.171zM64 896v-896h896v710.656l-188.416 185.344h-707.584zM704 512h-448v448h448v-448zM320 896v-320h320v320h-320zM256 192v-64h512v64zM256 384v-64h512v64zM512 768v-128h64v128z" />
<glyph unicode="&#xe912;" glyph-name="ShowChildren16" d="M78.5 960c-35.168 5.468-73.299-17.802-77.833-54.5-1.591-169.767-0.213-339.683-0.667-509.5-5.205-35.322 20.251-72.472 56.833-75.5 66.383-0.224 132.778-0.095 199.167-0.167v-275.667l-74 74.167c-12.459 12.459-32.875 12.459-45.333 0-12.459-12.544-12.459-32.789 0-45.333l126-125.833c0.597-0.853 1.232-1.651 2-2.333 6.229-6.315 14.475-9.333 22.667-9.333 8.277 0 16.519 3.019 22.833 9.333 0.683 0.683 1.317 1.48 2 2.333l126 125.833c12.459 12.544 12.459 32.789 0 45.333-12.544 12.459-32.789 12.459-45.333 0l-72.833-72.833v274.333c128.003-0.070 255.992-0.216 384-0.167v-275.5l-74 74.167c-12.459 12.459-32.875 12.459-45.333 0-12.459-12.544-12.459-32.789 0-45.333l126-125.833c0.597-0.853 1.232-1.651 2-2.333 6.229-6.315 14.475-9.333 22.667-9.333 8.277 0 16.519 3.019 22.833 9.333 0.683 0.683 1.317 1.48 2 2.333l126 125.833c12.459 12.544 12.459 32.789 0 45.333-12.544 12.459-32.789 12.459-45.333 0l-72.833-72.833v274.167c59.17 0.010 118.333-0.11 177.5-0.167 35.168-5.468 73.299 17.802 77.833 54.5 0.907 96.74 0.467 193.542 0.333 290.333 0.354 2.703 0.106 5.044 0 7.833-0.099 70.454 0.145 140.896 0.333 211.333 5.453 36.215-21.591 74.103-59.167 75.833-295.423 0.398-590.905 0.053-886.333 0.167zM64 896h896v-192.333c-298.613 0.609-597.361 0.131-896 0.333v192zM64 640h896v-256h-896v256zM128 832c256 0 512 0 768 0 0-21.333 0-42.667 0-64-256 0-512 0-768 0 0 21.333 0 42.667 0 64z" />
<glyph unicode="&#xe913;" glyph-name="ShowData16" d="M896 128c-1.936-35.837-36.987-56.832-65.621-71.509-84.671-39.343-179.223-50.829-271.565-55.54-111.319-3.565-225.112 4.168-330.974 41.034-36.756 14.549-78.986 31.685-96.768 69.717-6.601 25.541-1.432 52.64-3.072 78.809 0 171.163 0 342.326 0 513.489 2.138-36.775 38.541-57.784 67.93-72.66 86.554-39.286 182.834-50.522 276.902-54.657 109.484-2.817 221.356 5.256 325.279 42.033 36.089 14.452 77.417 31.572 94.817 68.986 4.601 18.722 2.676 15.113 3.072-2.455 0-185.749 0-371.498 0-557.247zM192 133.717c33.959-28.893 79.197-39.291 121.502-49.855 121.432-25.312 247.832-26.098 370.018-5.441 49.97 10.194 102.454 21.021 144.469 51.541 8.887 7.665 1.698 22.395 4.011 32.926 0 133.437 0 266.874 0 400.311-109.495-42.144-228.54-52.302-344.987-50.925-99.913 2.675-201.33 14.399-295.013 50.925 0-143.161 0-286.322 0-429.483zM520.704 832c92.285-1.592 186.336-10.291 273.067-43.817 43.148-17.118 88.341-46.667 99.696-94.68 10.852-42.268-12.833-86.014-47.581-109.593-52.895-36.761-117.602-50.58-180.141-60.889-112.553-16.098-227.98-15.146-339.87 5.593-56.651 11.862-115.953 27.112-160.698 65.838-32.656 27.261-47.464 75.715-29.327 115.266 21.399 47.744 72.274 71.905 119.296 87.552 85.48 27.324 176.251 34.757 265.557 34.731zM503.723 768c-84.295-1.573-170.32-8.854-249.686-39.209-23.946-10.694-53.244-23.277-61.354-50.647-4.407-25.1 20.16-42.199 39.434-52.679 60.545-30.331 128.943-39.831 195.646-46.093 101.076-7.366 204.218-3.635 302.561 22.467 34.178 10.635 71.997 21.686 95.191 50.791 13.171 16.641 4.152 39.967-11.6 51.245-38.052 29.396-86.604 40.001-132.73 49.617-58.456 10.844-118.066 14.781-177.462 14.509z" />
<glyph unicode="&#xe914;" glyph-name="ShowDescription16" d="M128 768h768v-64h-768v64zM128 640h448v-64h-448v64zM640 640h256v-64h-256v64zM128 512h704v-64h-704v64zM128 384h512v-64h-512v64zM128 128h512v-64h-512v64zM128 256h640v-64h-640v64z" />
<glyph unicode="&#xe915;" glyph-name="ShowMetadata16" d="M224 768c-17.672-0.002-31.998-14.328-32-32v0-242.667l-54.667-54.667c-5.814-5.795-9.411-13.811-9.411-22.667s3.597-16.872 9.41-22.666l54.668-54.668v-242.667c0.002-17.672 14.328-31.998 32-32h128v64h-96v224c0 0.023 0 0.050 0 0.077 0 8.817-3.566 16.802-9.334 22.59l-41.332 41.332 41.333 41.333c5.768 5.787 9.333 13.772 9.333 22.59 0 0.027 0 0.054 0 0.081v-0.004 224h96v64zM736 768v-64h96v-224c0-0.023 0-0.050 0-0.077 0-8.817 3.566-16.802 9.334-22.59l41.332-41.332-41.333-41.333c-5.768-5.787-9.333-13.772-9.333-22.59 0-0.027 0-0.054 0-0.081v0.004-224h-96v-64h128c17.672 0.002 31.998 14.328 32 32v0 242.667l54.667 54.667c5.814 5.795 9.411 13.811 9.411 22.667s-3.597 16.872-9.41 22.666l-54.668 54.668v242.667c-0.002 17.672-14.328 31.998-32 32v0zM448 416c0-17.673-14.327-32-32-32v0c-17.673 0-32 14.327-32 32v0c0 17.673 14.327 32 32 32v0c17.673 0 32-14.327 32-32v0zM576 416c0-17.673-14.327-32-32-32v0c-17.673 0-32 14.327-32 32v0c0 17.673 14.327 32 32 32v0c17.673 0 32-14.327 32-32v0zM704 416c0-17.673-14.327-32-32-32v0c-17.673 0-32 14.327-32 32v0c0 17.673 14.327 32 32 32v0c17.673 0 32-14.327 32-32v0z" />
<glyph unicode="&#xe916;" glyph-name="ShowParents16" d="M964.779 575.829c37.576-1.73 64.674-39.69 59.221-75.905-0.452-169.817 0.909-339.715-0.683-509.482-4.534-36.698-42.64-59.911-77.808-54.443-296.224 0.282-592.493-0.572-888.689 0.427-36.582 3.030-62.025 40.327-56.82 75.649 0.454 169.817-0.908 339.715 0.683 509.482 4.534 36.698 42.64 59.911 77.808 54.443 295.428-0.114 590.865 0.227 886.288-0.171zM64 512c0-170.667 0-341.333 0-512 298.667 0 597.333 0 896 0 0 170.667 0 341.333 0 512-298.667 0-597.333 0-896 0zM1010.005 319.659c20.746-12.627 20.843-63.506-8.592-63.659-316.596 0-633.191 0-949.787 0-23.625 9.609-24.526 64.458 5.946 64 317.47-0.228 634.999 0.455 952.432-0.341zM128 448c256 0 512 0 768 0 0-21.333 0-42.667 0-64-256 0-512 0-768 0 0 21.333 0 42.667 0 64zM256 960v-275.333l-74 74.167c-12.459 12.459-32.875 12.459-45.333 0-12.459-12.544-12.459-32.789 0-45.333l126-125.833c0.597-0.853 1.232-1.651 2-2.333 6.229-6.315 14.475-9.333 22.667-9.333 8.277 0 16.519 3.019 22.833 9.333 0.683 0.683 1.317 1.48 2 2.333l126 125.833c12.459 12.544 12.459 32.789 0 45.333-12.544 12.459-32.789 12.459-45.333 0l-72.833-72.833v274h-64zM704 960v-275.333l-74 74.167c-12.459 12.459-32.875 12.459-45.333 0-12.459-12.544-12.459-32.789 0-45.333l126-125.833c0.597-0.853 1.232-1.651 2-2.333 6.229-6.315 14.475-9.333 22.667-9.333 8.277 0 16.519 3.019 22.833 9.333 0.683 0.683 1.317 1.48 2 2.333l126 125.833c12.459 12.544 12.459 32.789 0 45.333-12.544 12.459-32.789 12.459-45.333 0l-72.833-72.833v274h-64z" />
<glyph unicode="&#xe917;" glyph-name="Table16" d="M964.779 959.829c38.707-1.759 65.268-41.441 59.221-78.311-0.32-296.386 0.639-592.824-0.479-889.177-3.373-37.498-42.192-62.052-78.002-56.342-296.386 0.32-592.824-0.639-889.177 0.479-37.498 3.373-62.052 42.192-56.342 78.002 0.32 296.386-0.639 592.824 0.479 889.177 3.373 37.498 42.192 62.052 78.002 56.342 295.431-0.114 590.871 0.228 886.297-0.171zM64 896c0-298.667 0-597.333 0-896 298.667 0 597.333 0 896 0 0 298.667 0 597.333 0 896-298.667 0-597.333 0-896 0zM995.322 575.659c24.288-14.11 14.504-73.64-14.305-63.659-309.877 0-619.753 0-929.63 0-26.18 8.809-19.916 73.313 9.751 64 311.39-0.228 622.816 0.455 934.183-0.341zM192 768c213.333 0 426.667 0 640 0 0-21.333 0-42.667 0-64-213.333 0-426.667 0-640 0 0 21.333 0 42.667 0 64zM448 384c128 0 256 0 384 0 0-21.333 0-42.667 0-64-128 0-256 0-384 0 0 21.333 0 42.667 0 64zM448 192c128 0 256 0 384 0 0-21.333 0-42.667 0-64-128 0-256 0-384 0 0 21.333 0 42.667 0 64zM192 384c42.667 0 85.333 0 128 0 0-21.333 0-42.667 0-64-42.667 0-85.333 0-128 0 0 21.333 0 42.667 0 64zM192 192c42.667 0 85.333 0 128 0 0-21.333 0-42.667 0-64-42.667 0-85.333 0-128 0 0 21.333 0 42.667 0 64z" />
<glyph unicode="&#xe918;" glyph-name="Trash16" d="M635.667 896.167c-8.769 0.221-17.802-0.808-26.333-0.167h-161.333c-19.758 0.054-30.178-18.6-43.5-30.167-32.505-32.635-65.244-65.12-97.667-97.833h-178.833v-64h64.167c-0.304-4.393-0.243-8.916 1-13.167 21.216-221.666 42.024-443.365 63.5-665 3.621-22.64 28.297-28.342 47.667-25.833 166.293 0.111 332.548-0.209 498.833 0.167 22.886 1.5 30.812 25.486 30.167 45 20.666 219.61 42.272 439.197 62.333 658.833h64.333v64h-178.667c-40.285 40.344-80.464 80.751-121 120.833-7.312 5.665-15.898 7.112-24.667 7.333zM461.333 832h165.333l64-64h-293.333l64 64zM256.167 704h577.167c-3.032-17.050-3.5-34.752-6.333-51.833l-56.167-588.167h-453.667c-20.419 213.329-40.416 426.69-61 640zM384 576c21.333 0 42.667 0 64 0 0-149.333 0-298.667 0-448-21.333 0-42.667 0-64 0 0 149.333 0 298.667 0 448zM640 576c21.333 0 42.667 0 64 0 0-149.333 0-298.667 0-448-21.333 0-42.667 0-64 0 0 149.333 0 298.667 0 448zM512 576c21.333 0 42.667 0 64 0 0-149.333 0-298.667 0-448-21.333 0-42.667 0-64 0 0 149.333 0 298.667 0 448z" />
<glyph unicode="&#xe919;" glyph-name="Visibility16" d="M530.944 768c156.335-2.791 314.1-63.969 423.542-177.124 43.214-45.875 82.274-109.114 65.503-174.62-20.805-76.801-84.258-132.451-147.389-176.109-139.21-92.497-315.246-136.002-480.086-98.758-118.87 26.361-234.437 80.501-321.386 167.052-43.077 44.433-82.042 106.046-68.391 170.505 19.431 74.425 78.007 131.073 138.251 175.11 112.744 79.939 252.772 115.639 389.956 113.943zM517.973 704.085c-145.384-0.88-296.622-47.928-399.986-153.828-25.828-29.103-55.568-63.516-53.816-104.817 9.693-56.722 55.453-98.408 98.521-132.448 103.247-75.846 230.74-121.271 359.344-120.914 128.97 2.803 256.392 51.242 356.422 132.316 36.458 32.009 75.939 70.534 81.456 121.302-0.956 47.282-35.737 85.079-67.328 116.736-100.283 92.856-238.568 142.317-374.613 141.653zM576 512c1.576-41.504-43.767-74.862-82.913-61.142-40.089 10.768-58.629 63.923-33.908 97.279 22.134 35.13 78.39 37.123 102.954 3.646 8.933-11.197 13.903-25.461 13.867-39.783zM518.571 767.915c88.769-1.397 174.188-53.3 216.887-131.036 47.035-82.040 42.556-190.173-11.233-267.982-48.294-72.807-135.811-117.236-223.136-112.642-89.397 2.853-174.441 57.062-215.556 136.362-43.754 81.105-38.356 185.768 13.773 261.811 5.144 8.437 9.357 14.683 8.919 0.847 5.385-31.214 42.984-50.406 71.382-36.276 29.077 12.081 39.508 52.63 19.839 77.236-9.478 12.74-25.054 20.672-40.96 20.565 45.577 34.481 102.963 52.764 160.085 51.115zM507.904 703.915c-13.202-0.166-26.426-1.905-39.253-4.864 15.979-49.714-7.141-108.191-52.939-133.376-27.093-15.944-61.073-19.251-90.848-10.496-16.543-68.784 9.021-145.321 63.75-190.185 57.409-49.651 145.121-59.188 211.966-23.333 64.902 33.017 107.192 105.342 103.234 178.183-2.001 75.413-53.485 146.026-124.197 171.901-22.824 8.614-47.33 12.736-71.714 12.169z" />
<glyph unicode="&#xe91a;" glyph-name="AddRelationCursor" d="M832 160c-35.968 0.043-73.003 11.221-99.797 35.883-17.024 15.616-28.8 38.016-28.16 61.483 0.256 24.448 13.781 47.061 32.256 62.336 26.496 22.187 61.525 32.256 95.701 32.299 0-64 0-128 0-192zM798.848 315.947c-21.632-5.589-43.051-16.896-55.552-36.011-8.064-12.117-9.685-28.288-3.413-41.557 9.088-19.243 28.117-31.701 47.531-38.827 4.139-1.451 8.32-2.773 12.587-3.755 0 40.149 0 80.256 0 120.405-0.384-0.085-0.768-0.171-1.152-0.256v0zM387.285 479.957c35.413-0.683 71.723-12.288 97.749-37.035 16.512-15.616 27.691-37.717 26.923-60.757-0.427-24.277-13.909-46.677-32.256-61.867-26.496-22.187-61.525-32.256-95.701-32.299 0 64 0 128 0 192 1.109 0 2.176-0.043 3.285-0.043zM416 323.797c21.547 5.291 42.923 16.299 55.808 34.944 8.619 12.117 10.837 28.715 4.523 42.368-8.661 18.944-27.093 31.403-45.995 38.699-4.693 1.749-9.472 3.243-14.336 4.395 0-40.149 0-80.256 0-120.405zM512.085 400c-12.544 0.853-21.12-15.232-13.397-25.173 7.125-10.283 20.779-5.76 31.232-7.381 18.347-1.579 38.229-2.901 53.803-13.781 11.264-9.301 8.789-25.301 9.429-38.272-0.427-19.669 4.608-41.216 20.821-53.973 21.376-17.195 50.219-19.669 76.587-21.12 9.173-0.085 21.077-2.517 26.88 6.784 7.339 9.899-0.981 25.515-13.269 24.917-22.357 0.683-46.037 1.109-66.304 11.733-11.819 6.101-12.757 20.565-12.715 32.299 0.299 20.395-1.237 43.264-16.768 58.411-18.944 18.859-47.061 22.827-72.491 24.747-7.893 0.555-15.872 0.768-23.808 0.811v0zM33.749 959.957c20.309-1.323 30.592-21.589 44.843-33.323 110.165-110.421 220.843-220.373 330.709-331.051 15.531-18.261 2.304-49.707-21.589-51.371-38.784-0.512-77.611-0.043-116.437-0.213 15.872-40.832 33.408-81.152 48.171-122.325 3.883-17.92-10.155-33.664-26.368-38.912-21.248-9.728-41.301-22.485-63.317-30.208-18.219-3.968-34.859 10.539-38.741 27.733-14.251 35.584-28.459 71.168-42.709 106.752-32.64-32.256-64.555-65.28-97.621-97.024-18.816-14.848-49.707-0.555-50.603 23.381-0.128 172.416-0.128 344.789 0 517.205 1.152 16.853 16.768 30.592 33.664 29.355zM32 416c42.667 42.667 85.333 85.333 128 128 21.333-53.333 42.667-106.667 64-160 21.333 10.667 42.667 21.333 64 32-21.333 53.333-42.667 106.667-64 160 53.333 0 106.667 0 160 0-117.333 117.333-234.667 234.667-352 352 0-170.667 0-341.333 0-512zM623.744 768.256c-8.661-0.128-15.744-7.339-15.744-16 0-0.085 0-0.171 0-0.256v-80h-80c-0.085 0-0.171 0-0.213 0-8.789 0-16-7.211-16-16s7.211-16 16-16c0.043 0 0.128 0 0.213 0h80v-80c0-0.085 0-0.171 0-0.213 0-8.789 7.211-16 16-16s16 7.211 16 16c0 0.043 0 0.128 0 0.213v80h80c0.085 0 0.171 0 0.213 0 8.789 0 16 7.211 16 16s-7.211 16-16 16c-0.043 0-0.128 0-0.213 0h-80v80c0 0.085 0 0.171 0 0.256 0 8.789-7.211 16-16 16-0.085 0-0.171 0-0.256 0z" />
<glyph unicode="&#xe91b;" glyph-name="Edit" d="M767.6 910.667c-6.931-0.095-13.182-2.93-17.734-7.467l-645.466-645.466c-3.441-3.471-5.895-7.924-6.905-12.902l-0.028-0.164-45.733-226.667c-0.317-1.512-0.499-3.25-0.499-5.030 0-14.14 11.463-25.603 25.603-25.603 1.78 0 3.518 0.182 5.195 0.527l-0.165-0.029 226.8 45.6c5.142 1.038 9.596 3.493 13.069 6.935l645.465 645.465c4.651 4.636 7.528 11.049 7.528 18.133s-2.878 13.497-7.528 18.133l-181.068 181.068c-4.63 4.616-11.020 7.471-18.076 7.471-0.161 0-0.322-0.001-0.482-0.004h0.024zM768 848.8l144.8-144.8-621.867-621.867-181.333-36.533 36.533 181.333zM650 767.067l-36.133-36.133 181.067-181.067 36.133 36.133zM460.8 38.4v-51.2h409.6v51.2z" />
<glyph unicode="&#xe91c;" glyph-name="Hidden" d="M127.733 857.867c-24.651 1.216-34.89-34.041-14.588-47.278 255.57-255.45 510.905-511.146 766.623-766.442 19.455-17.89 52.107 7.686 39.396 30.86-27.766 32.638-60.556 61.271-90.263 92.36-228.236 228.147-456.297 456.476-684.643 684.509-4.576 3.863-10.536 6.024-16.524 5.992zM531.251 755.2c147.859-2.501 296.564-55.655 406.938-155.17 41.054-38.772 81.095-86.796 85.675-145.408 1.754-60.363-38.699-111.623-80.555-150.801-51.206-46.634-111.537-83.063-175.514-109.227-23.993-7.72-47.341 6.788-61.964 24.988-141.307 141.105-283.265 281.614-424.164 423.091-23.661 26.814-8.080 73.987 26.785 81.677 72.028 21.893 147.592 31.65 222.799 30.849zM518.144 704.068c-66.479-0.5-133.078-9.688-196.676-29.286 144.179-143.633 288.358-287.266 432.538-430.899 72.473 32.421 143.433 75.418 192.329 139.278 20.289 26.635 35.313 63.215 20.049 95.764-24.396 55.45-72.856 95.903-121.855 129.31-96.106 63.199-211.453 96.549-326.384 95.833zM517.257 601.463c34.665-1.43 67.577-22.118 84.253-52.49 17.633-31.060 17.078-71.371-1.398-101.94-9.737-16.048-23.588-30.276-40.803-38.15-19.198-8.044-42.878-2.829-56.877 12.585-24.007 24.425-48.35 48.539-72.147 73.158-14.266 16.402-16.047 42.038-4.204 60.268 18.681 29.302 53.093 47.688 87.858 46.66 1.106-0.030 2.212-0.061 3.318-0.091zM510.362 550.4c-16.285-0.422-31.99-9.225-40.96-22.801 23.529-23.757 47.058-47.514 70.588-71.27 18.562 11.771 27.698 36.22 21.126 57.243-6.103 22.048-27.928 37.766-50.754 36.829zM515.277 755.2c86.087-0.326 169.785-47.98 214.51-121.454 48.336-76.483 50.924-178.912 6.605-257.767-20.162-37.205-50.134-68.561-85.643-91.453-7.005-9.363-12.101 2.41-17.848 6.944-113.323 113.389-226.646 226.778-339.969 340.168 4.565 7.157 9.279 14.224 14.268 21.094-1.028-31.371 31.486-57.63 61.918-49.971 29.085 5.286 48.199 38.803 37.758 66.545-6.642 20.283-27.033 34.981-48.408 34.695 44.746 33.846 100.723 52.045 156.809 51.2zM507.699 703.932c-18.958-0.34-37.86-3.359-55.979-8.943 19.302-40.829 6.937-93.331-28.399-121.378 75.389-75.275 150.778-151.279 226.167-226.099 54.94 48.644 79.378 128.115 61.763 199.285-17.625 77.117-83.821 140.196-161.797 153.767-13.754 2.526-27.772 3.721-41.756 3.368z" />
<glyph unicode="&#xe91d;" glyph-name="Left" d="M976.828 908.663c30.708-1.592 51.871-32.97 47.172-62.304-0.273-288.467 0.539-576.983-0.403-865.419-2.864-30.883-35.179-49.803-64.286-44.94-151.756 0.409-303.594-0.818-455.298 0.614-30.096 3.911-47.855 35.566-43.213 64.074 0.271 287.717-0.542 575.484 0.406 863.171 2.859 30.881 35.181 49.798 64.283 44.94 150.445-0.091 300.897 0.182 451.339-0.137zM512 857.6c0-290.133 0-580.267 0-870.4 153.6 0 307.2 0 460.8 0 0 290.133 0 580.267 0 870.4-153.6 0-307.2 0-460.8 0zM362.428 908.663c30.377-1.597 51.705-32.467 47.172-61.619-0.26-288.65 0.52-577.347-0.389-865.968-2.756-30.543-34.544-49.793-63.477-45.076-100.83 0.41-201.743-0.82-302.521 0.614-29.703 3.875-47.708 34.962-43.213 63.252 0.26 287.947-0.52 575.94 0.389 863.857 2.756 30.543 34.544 49.793 63.477 45.076 99.52-0.091 199.046 0.182 298.562-0.137zM51.2 857.6c0-290.133 0-580.267 0-870.4 102.4 0 204.8 0 307.2 0 0 290.133 0 580.267 0 870.4-102.4 0-204.8 0-307.2 0zM153.6 755.2v-51.2h102.4v51.2zM153.6 601.6v-51.2h102.4v51.2zM153.6 448v-51.2h102.4v51.2zM153.6 294.4v-51.2h102.4v51.2zM153.6 140.8v-51.2h102.4v51.2z" />
<glyph unicode="&#xe91e;" glyph-name="New" d="M169.333 960c-38.012 8.371-75.908-26.834-66.479-65.788-0.836-304.505-0.553-609.326-0.138-913.635 5.046-40.923 48.972-49.015 82.791-44.218 230.466-0.683 461.246-0.471 691.517-0.043 54.827 8.27 44.754 71.567 44.344 111.801 0.198 211.771 0.891 423.654-0.266 635.371-9.974 22.925-33.845 36.75-49.685 55.764-72.53 72.040-144.142 145.122-217.245 216.511-23.302 9.042-49.927 2.017-74.582 4.238-136.728-0.412-273.507 0.066-410.254 0zM153.6 908.8c153.6 0 307.2 0 460.8 0 0-85.333 0-170.667 0-256 85.333 0 170.667 0 256 0 0-221.867 0-443.733 0-665.6-238.933 0-477.867 0-716.8 0 0 307.2 0 614.4 0 921.6zM665.6 872.533c56.4-56.4 112.8-112.8 169.2-169.2-56.397 0.761-112.802 0.011-169.2 0.667 0 56.178 0 112.356 0 168.533z" />
<glyph unicode="&#xe91f;" glyph-name="Open" d="M25.6 908.8c-14.138-0.001-25.599-11.462-25.6-25.6v0-844.8c-0.001-0.099-0.002-0.216-0.002-0.333s0.001-0.234 0.002-0.351v0.018c0.009-0.173-0.010-0.36 0-0.533 0.162-4.338 1.379-8.359 3.399-11.857l-0.066 0.124c5.549-19.234 20.040-35.709 41.2-37.733 251.688-1.12 503.344-0.212 755.067-0.533 25.873-3.362 56.762 4.633 66.8 31.467 52.022 186.384 101.959 373.363 153.2 560 14.446 31.159-7.34 72.206-42.533 73.867-35.559 0.068-71.107-0.036-106.667 0 0 0.040 0 0.086 0 0.133s0 0.094 0 0.141v-0.007 128c-0.001 14.138-11.462 25.599-25.6 25.6h-299.467l-147.067 98.133c-3.98 2.673-8.88 4.267-14.152 4.267-0.040 0-0.081 0-0.121 0h-358.394zM51.2 857.6h325.067l147.067-98.133c3.98-2.673 8.88-4.267 14.152-4.267 0.040 0 0.081 0 0.121 0h281.594v-102.4c0-0.040 0-0.086 0-0.133s0-0.094 0-0.141v0.007c-198.289 0.133-396.51 0.159-594.8 0.267-25.872 3.362-56.762-4.633-66.8-31.467-36.131-129.448-71.13-259.207-106.4-388.933v625.2zM204.8 601.6h768l-153.6-563.2h-768l153.6 563.2z" />
<glyph unicode="&#xe920;" glyph-name="Relation" d="M-48 960c-26.99 2.116-52.881-20.199-54.267-47.333-0.396-136.051-0.020-272.073-0.133-408.133-2.53-25.198 15.408-50.603 40.533-55.333 19.407-2.513 39.124-0.566 58.667-1.2 26.99-2.116 52.882 20.199 54.267 47.333 0.058 20.179-0.030 40.353 0 60.533 37.19 7.165 72.988 21.869 102.133 46.267 23.565 19.524 41.506 46.583 48.267 76.533 0.897-0.14 1.956-0.236 3.032-0.266l0.035-0.001c68.478-0.556 117.901-28.504 162.533-73.333s82.631-106.895 121.333-170.667c38.702-63.771 78.167-129.213 129.733-180.267s117.064-87.286 200.933-87.733c0.091-0.001 0.198-0.002 0.306-0.002 0.925 0 1.839 0.049 2.739 0.145l-0.112-0.010c6.149-27.101 21.942-51.925 42.4-70.667 30.119-27.719 68.391-44.269 108.4-52-0.003-17.113 0.015-34.22 0-51.333-2.53-25.198 15.408-50.602 40.533-55.333 19.407-2.513 39.124-0.565 58.667-1.2 26.99-2.116 52.882 20.199 54.267 47.333 0.396 136.763 0.017 273.494 0.133 410.267 2.174 27.399-20.722 53.385-48.267 54.267-16.952 0.157-33.98 0.089-50.933 0.133-26.99 2.116-52.882-20.199-54.267-47.333-0.059-20.179 0.030-40.354 0-60.533-37.19-7.165-72.988-21.869-102.133-46.267-23.538-19.493-41.485-46.5-48.267-76.4-0.799 0.088-1.725 0.139-2.664 0.139-0.189 0-0.377-0.002-0.564-0.006h0.028c-69.765 0.372-120.034 28.217-165.2 72.933s-83.331 106.683-122 170.4c-38.669 63.717-77.879 129.121-128.8 180.267s-115.466 87.727-198.267 88.4c-1.151-0.024-2.258-0.12-3.342-0.284l0.142 0.018c-5.937 26.256-20.74 50.455-40.267 68.933-30.354 28.818-69.488 46.237-110.4 54.133 0.002 17.736-0.015 35.464 0 53.2 2.174 27.399-20.722 53.385-48.267 54.267-16.952 0.157-33.98 0.089-50.933 0.133zM-51.2 908.8h51.2v-409.6h-51.2v409.6zM51.2 800.267c8.029-1.883 15.883-4.297 23.6-7.2 29.973-11.706 59.227-31.626 72.933-61.733 9.995-21.603 6.675-47.85-6.8-67.2-20.566-30.17-54.998-47.877-89.733-56.4v192.533zM1024 396.8h51.2v-409.6h-51.2v409.6zM972.8 288.267v-192.533c-6.831 1.576-13.518 3.69-20.133 6-31.086 11.414-61.445 31.353-76 62.133-10.034 21.209-7.427 46.993 5.467 66.4 19.986 30.58 54.207 48.655 88.8 57.6l1.867 0.4z" />
<glyph unicode="&#xe921;" glyph-name="Right" d="M516.028 908.663c30.72-1.57 51.883-32.973 47.172-62.327-0.273-288.427 0.546-576.99-0.41-865.417-2.867-30.857-35.157-49.766-64.307-44.919-151.757 0.41-303.582-0.819-455.27 0.614-30.106 3.891-47.855 35.567-43.213 64.102 0.273 287.676-0.546 575.488 0.41 863.164 2.867 30.857 35.157 49.766 64.307 44.919 150.391-0.068 300.851 0.205 451.311-0.137zM51.2 857.6c0-290.133 0-580.267 0-870.4 153.6 0 307.2 0 460.8 0 0 290.133 0 580.267 0 870.4-153.6 0-307.2 0-460.8 0zM976.828 908.663c30.379-1.57 51.678-32.495 47.172-61.645-0.273-288.631 0.546-577.331-0.41-865.963-2.731-30.515-34.543-49.766-63.488-45.056-100.83 0.41-201.728-0.819-302.49 0.614-29.696 3.891-47.718 34.953-43.213 63.283 0.273 287.949-0.546 575.898 0.41 863.846 2.731 30.515 34.543 49.766 63.488 45.056 99.465-0.068 198.997 0.205 298.53-0.137zM665.6 857.6c0-290.133 0-580.267 0-870.4 102.4 0 204.8 0 307.2 0 0 290.133 0 580.267 0 870.4-102.4 0-204.8 0-307.2 0zM768 755.2h102.4v-51.2h-102.4v51.2zM768 601.6h102.4v-51.2h-102.4v51.2zM768 448h102.4v-51.2h-102.4v51.2zM768 294.4h102.4v-51.2h-102.4v51.2zM768 140.8h102.4v-51.2h-102.4v51.2z" />
<glyph unicode="&#xe922;" glyph-name="Save" d="M774.827 959.863l3.959-0.478 3.891-0.751 3.891-1.092 3.686-1.365 3.686-1.638 3.482-1.98 3.277-2.185 3.14-2.458 3.004-2.662 204.732-202.479 2.526-3.14 2.253-3.413 1.98-3.482 1.707-3.686 1.434-3.823 1.092-3.891 0.819-3.959 0.478-4.028 0.137-4.028v-722.125l-0.205-4.233-0.478-4.164-0.887-4.164-1.229-4.096-1.502-3.891-1.843-3.823-2.185-3.618-2.458-3.482-2.731-3.209-3.004-3.004-3.209-2.731-3.482-2.458-3.618-2.185-3.823-1.843-3.891-1.502-4.096-1.229-4.164-0.887-4.164-0.478-4.233-0.205-934.161 1.57-4.096 1.229-3.891 1.502-3.823 1.843-3.618 2.185-3.482 2.458-3.209 2.731-3.004 3.004-2.731 3.209-2.458 3.482-2.185 3.618-1.843 3.823-1.502 3.891-1.229 4.096-0.887 4.164-0.478 4.164-0.205 4.233v921.6l0.205 4.233 0.478 4.164 0.887 4.164 1.229 4.096 1.502 3.891 1.843 3.823 2.185 3.618 2.458 3.482 2.731 3.209 3.004 3.004 3.209 2.731 3.482 2.458 3.618 2.185 3.823 1.843 3.891 1.502 4.096 1.229 4.164 0.887 4.164 0.478 4.233 0.205 723.627-0.137zM51.2 908.8v-921.6h921.6v722.125l-201.933 199.475h-719.667zM716.8 499.2h-512v460.8h512v-460.8zM256 550.4h409.6v358.4h-409.6v-358.4zM204.8 192v-51.2h614.4v51.2zM204.8 345.6v-51.2h614.4v51.2zM563.2 755.2v-102.4h51.2v102.4z" />
<glyph unicode="&#xe923;" glyph-name="ShowChildren" d="M977.033 959.795c31.019-1.581 51.774-33.512 46.967-62.937-0.321-168.881 0.635-337.817-0.478-506.664-2.982-31.202-35.871-49.507-65.052-44.595-304.618 0.318-609.291-0.636-913.875 0.477-31.202 2.983-49.507 35.872-44.595 65.053 0.319 168.085-0.637 336.225 0.477 504.275 2.983 31.202 35.872 49.507 65.053 44.595 303.832-0.137 607.678 0.273 911.502-0.205zM51.2 908.8c0-170.667 0-341.333 0-512 307.2 0 614.4 0 921.6 0 0 170.667 0 341.333 0 512-307.2 0-614.4 0-921.6 0zM1009.869 652.527c25.301-11.255 15.005-58.987-14.63-50.927-316.819 0-633.637 0-950.456 0-26.775 7.047-20.368 58.65 9.973 51.2 318.366-0.182 636.77 0.364 955.113-0.273zM153.6 806.4c204.8 0 409.6 0 614.4 0 0-17.067 0-34.133 0-51.2-204.8 0-409.6 0-614.4 0 0 17.067 0 34.133 0 51.2zM256 345.6v-322.667l-59.2 59.333c-9.967 9.967-26.3 9.967-36.267 0-9.967-10.035-9.967-26.231 0-36.267l100.8-100.667c0.478-0.683 0.986-1.321 1.6-1.867 4.983-5.052 11.58-7.467 18.133-7.467 6.622 0 13.215 2.415 18.267 7.467 0.546 0.546 1.054 1.184 1.6 1.867l100.8 100.667c9.967 10.035 9.967 26.231 0 36.267-10.035 9.967-26.231 9.967-36.267 0l-58.267-58.267v321.6h-51.2zM716.8 345.6v-322.667l-59.2 59.333c-9.967 9.967-26.3 9.967-36.267 0-9.967-10.035-9.967-26.231 0-36.267l100.8-100.667c0.478-0.683 0.986-1.321 1.6-1.867 4.984-5.052 11.58-7.467 18.133-7.467 6.622 0 13.215 2.415 18.267 7.467 0.546 0.546 1.054 1.184 1.6 1.867l100.8 100.667c9.967 10.035 9.967 26.231 0 36.267-10.035 9.967-26.231 9.967-36.267 0l-58.267-58.267v321.6h-51.2z" />
<glyph unicode="&#xe924;" glyph-name="ShowData" d="M819.2 140.8c-2.174-29.873-32.901-45.616-56.866-57.207-79.408-33.696-166.857-42.152-252.29-44.951-96.139-1.117-194.463 5.683-285.447 38.944-27.279 11.822-61.057 25.53-70.315 56.661-1.596 87.512-0.225 175.24-0.683 262.835 0 119.031 0 239.884 0 357.777 2.498-29.85 33.259-45.36 57.207-57.071 80.614-33.934 169.294-42.308 255.929-44.809 94.829-0.813 191.75 6.174 281.466 39.007 27.279 11.822 61.057 25.53 70.315 56.661 1.516 14.892 0.285-15.112 0.683-20.835 0-195.67 0-391.341 0-587.011zM204.8 146.603c33.182-25.562 75.941-33.8 116.011-42.551 110.441-19.7 224.672-19.516 335.027 0.704 38.763 8.787 80.098 16.971 112.162 41.847 0 166.070 0 332.14 0 498.21-95.276-35.733-198.505-43.644-299.486-43.077-89.146 2.123-179.785 11.272-263.714 43.076 0-166.070 0-332.14 0-498.21zM494.046 857.6c79.844-1.249 161-7.93 236.851-34.442 35.175-12.987 73.232-34.040 85.109-72.187 10.897-33.115-6.416-69.383-34.060-88.489-43.961-30.995-98.213-41.734-150.296-50.521-98.939-14.285-200.158-14.067-298.951 1.343-50.543 9.14-103.39 20.243-145.239 51.784-26.627 19.861-41.752 56.458-29.782 88.595 13.749 38.528 53.386 58.608 89.592 71.41 79.21 26.234 163.82 32.39 246.776 32.507zM479.164 806.4c-74.011-1.281-149.319-6.941-219.721-31.355-20.319-8.396-45.106-17.4-53.823-39.506-4.648-19.508 15.125-32.956 30.037-40.892 49.566-24.331 105.282-31.944 159.621-37.738 92.716-7.802 187.166-5.5 278.145 15.27 30.443 8.343 63.55 16.405 86.649 39.304 11.341 10.361 9.707 28.883-1.956 38.308-25.933 23.092-61.201 31.203-94.046 39.371-60.644 13.208-122.953 17.408-184.907 17.237z" />
<glyph unicode="&#xe925;" glyph-name="ShowDescription" d="M153.6 806.4h665.6v-51.2h-665.6v51.2zM153.6 704h358.4v-51.2h-358.4v51.2zM563.2 704h256v-51.2h-256v51.2zM563.2 294.4h204.8v-51.2h-204.8v51.2zM153.6 601.6h563.2v-51.2h-563.2v51.2zM153.6 499.2h409.6v-51.2h-409.6v51.2zM153.6 89.6h409.6v-51.2h-409.6v51.2zM153.6 294.4h358.4v-51.2h-358.4v51.2zM153.6 396.8h512v-51.2h-512v51.2zM153.6 192h512v-51.2h-512v51.2z" />
<glyph unicode="&#xe926;" glyph-name="ShowMetadata" d="M179.2 806.4c-14.138-0.001-25.599-11.462-25.6-25.6v0-296.533l-43.733-43.733c-4.651-4.636-7.528-11.049-7.528-18.133s2.878-13.497 7.528-18.133l43.734-43.734v-296.533c0.001-14.138 11.462-25.599 25.6-25.6h102.4v51.2h-76.8v281.6c0 0.018 0 0.040 0 0.062 0 7.054-2.853 13.442-7.467 18.072l-33.066 33.066 33.067 33.067c4.614 4.63 7.467 11.018 7.467 18.072 0 0.022 0 0.043 0 0.065v-0.003 281.6h76.8v51.2zM793.6 806.4v-51.2h76.8v-281.6c0-0.018 0-0.040 0-0.062 0-7.054 2.853-13.442 7.467-18.072l33.066-33.066-33.067-33.067c-4.614-4.63-7.467-11.018-7.467-18.072 0-0.022 0-0.043 0-0.065v0.003-281.6h-76.8v-51.2h102.4c14.138 0.001 25.599 11.462 25.6 25.6v0 296.533l43.733 43.733c4.651 4.636 7.528 11.049 7.528 18.133s-2.878 13.497-7.528 18.133l-43.734 43.734v296.533c-0.001 14.138-11.462 25.599-25.6 25.6v0zM409.6 422.4c0-14.138-11.462-25.6-25.6-25.6v0c-14.138 0-25.6 11.462-25.6 25.6v0c0 14.138 11.462 25.6 25.6 25.6v0c14.138 0 25.6-11.462 25.6-25.6v0zM563.2 422.4c0-14.138-11.462-25.6-25.6-25.6v0c-14.138 0-25.6 11.462-25.6 25.6v0c0 14.138 11.462 25.6 25.6 25.6v0c14.138 0 25.6-11.462 25.6-25.6v0zM716.8 422.4c0-14.138-11.462-25.6-25.6-25.6v0c-14.138 0-25.6 11.462-25.6 25.6v0c0 14.138 11.462 25.6 25.6 25.6v0c14.138 0 25.6-11.462 25.6-25.6v0z" />
<glyph unicode="&#xe927;" glyph-name="ShowParents" d="M977.033 550.195c31.019-1.581 51.774-33.512 46.967-62.937-0.321-168.881 0.635-337.817-0.478-506.664-2.983-31.202-35.872-49.507-65.053-44.595-304.618 0.321-609.291-0.635-913.875 0.478-31.201 2.982-49.506 35.871-44.594 65.052 0.319 168.085-0.637 336.225 0.477 504.275 2.983 31.202 35.872 49.507 65.053 44.595 303.832-0.137 607.678 0.273 911.502-0.205zM51.2 499.2c0-170.667 0-341.333 0-512 307.2 0 614.4 0 921.6 0 0 170.667 0 341.333 0 512-307.2 0-614.4 0-921.6 0zM1009.869 242.927c25.301-11.255 15.005-58.987-14.63-50.927-316.819 0-633.637 0-950.456 0-26.775 7.047-20.368 58.65 9.973 51.2 318.366-0.182 636.77 0.364 955.113-0.273zM153.6 396.8c204.8 0 409.6 0 614.4 0 0-17.067 0-34.133 0-51.2-204.8 0-409.6 0-614.4 0 0 17.067 0 34.133 0 51.2zM256 960v-322.667l-59.2 59.333c-9.967 9.967-26.3 9.967-36.267 0-9.967-10.035-9.967-26.231 0-36.267l100.8-100.667c0.478-0.683 0.986-1.321 1.6-1.867 4.983-5.052 11.58-7.467 18.133-7.467 6.622 0 13.215 2.415 18.267 7.467 0.546 0.546 1.054 1.184 1.6 1.867l100.8 100.667c9.967 10.035 9.967 26.231 0 36.267-10.035 9.967-26.231 9.967-36.267 0l-58.267-58.267v321.6h-51.2zM716.8 960v-322.667l-59.2 59.333c-9.967 9.967-26.3 9.967-36.267 0-9.967-10.035-9.967-26.231 0-36.267l100.8-100.667c0.478-0.683 0.986-1.321 1.6-1.867 4.984-5.052 11.58-7.467 18.133-7.467 6.622 0 13.215 2.415 18.267 7.467 0.546 0.546 1.054 1.184 1.6 1.867l100.8 100.667c9.967 10.035 9.967 26.231 0 36.267-10.035 9.967-26.231 9.967-36.267 0l-58.267-58.267v321.6h-51.2z" />
<glyph unicode="&#xe928;" glyph-name="Table" d="M977.033 959.795c32.256-1.613 52.302-35.388 46.967-65.477-0.357-304.735 0.714-609.533-0.535-914.228-3.419-32.461-38.265-49.376-68.043-44.090-303.769 0.357-607.602-0.714-911.332 0.535-32.461 3.419-49.376 38.265-44.090 68.043 0.357 303.769-0.714 607.602 0.535 911.332 3.419 32.461 38.265 49.376 68.043 44.090 302.817-0.137 605.646 0.273 908.455-0.205zM51.2 908.8c0-307.2 0-614.4 0-921.6 307.2 0 614.4 0 921.6 0 0 307.2 0 614.4 0 921.6-307.2 0-614.4 0-921.6 0zM1010.142 652.527c24.84-11.288 14.833-58.912-14.63-50.927-316.91 0-633.82 0-950.729 0-26.774 7.047-20.368 58.65 9.973 51.2 318.457-0.182 636.952 0.364 955.386-0.273zM204.8 806.4c204.8 0 409.6 0 614.4 0 0-17.067 0-34.133 0-51.2-204.8 0-409.6 0-614.4 0 0 17.067 0 34.133 0 51.2zM409.6 396.8c136.533 0 273.067 0 409.6 0 0-17.067 0-34.133 0-51.2-136.533 0-273.067 0-409.6 0 0 17.067 0 34.133 0 51.2zM409.6 243.2c136.533 0 273.067 0 409.6 0 0-17.067 0-34.133 0-51.2-136.533 0-273.067 0-409.6 0 0 17.067 0 34.133 0 51.2zM204.8 396.8c34.133 0 68.267 0 102.4 0 0-17.067 0-34.133 0-51.2-34.133 0-68.267 0-102.4 0 0 17.067 0 34.133 0 51.2zM204.8 243.2c34.133 0 68.267 0 102.4 0 0-17.067 0-34.133 0-51.2-34.133 0-68.267 0-102.4 0 0 17.067 0 34.133 0 51.2z" />
<glyph unicode="&#xe929;" glyph-name="Trash" d="M153.6 701.733c17.196-248.133 34.062-496.287 51.467-744.4 3.15-21.805 27.688-22.931 44.933-21.333 199.962 0.335 399.957-0.634 599.867 0.533 25.204 5.181 20.606 34.555 22.667 53.733l49.067 711.467h-51.467l-49.2-714.533h-566.667l-49.2 714.533h-51.467zM51.2 806.4c324.267 0 648.533 0 972.8 0 0-17.067 0-34.133 0-51.2-324.267 0-648.533 0-972.8 0 0 17.067 0 34.133 0 51.2zM819.2 755.2c-187.733 0-375.467 0-563.2 0 51.2 68.267 102.4 136.533 153.6 204.8 85.333 0 170.667 0 256 0 51.2-68.267 102.4-136.533 153.6-204.8zM435.2 908.8c-25.6-34.133-51.2-68.267-76.8-102.4 119.467 0 238.933 0 358.4 0-25.6 34.133-51.2 68.267-76.8 102.4-68.267 0-136.533 0-204.8 0zM358.4 601.6c17.067 0 34.133 0 51.2 0 0-153.6 0-307.2 0-460.8-17.067 0-34.133 0-51.2 0 0 153.6 0 307.2 0 460.8zM512 601.6c17.067 0 34.133 0 51.2 0 0-153.6 0-307.2 0-460.8-17.067 0-34.133 0-51.2 0 0 153.6 0 307.2 0 460.8zM665.6 601.6c17.067 0 34.133 0 51.2 0 0-153.6 0-307.2 0-460.8-17.067 0-34.133 0-51.2 0 0 153.6 0 307.2 0 460.8z" />
<glyph unicode="&#xe92a;" glyph-name="Visibility" d="M531.251 755.2c153.543-2.76 308.785-59.685 419.703-167.458 41.086-41.704 81.715-97.525 71.206-159.436-14.61-70.936-71.841-122.968-127.77-164.094-141.791-99.164-323.657-146.916-494.826-111.807-119.98 24.621-237.094 76.578-326.793 161.278-40.517 40.082-79.042 94.022-71.816 153.977 12.447 65.148 61.874 115.56 111.275 156.194 117.825 92.751 270.672 133.009 419.021 131.345zM518.144 704.068c-146.802-1.029-299.444-45.843-407.006-149.436-27.715-29.046-58.1-62.878-60.143-104.994 6.71-54.106 49.63-94.553 89.634-127.386 101.876-77.603 228.019-123.595 355.942-129.911 136.529-3.972 273.175 42.689 382.266 124.076 39.712 31.957 82.236 69.969 93.075 122.093 4.754 43.216-26.221 79.666-53.596 109.388-95.847 95.235-229.813 147.099-363.581 155.281-12.187 0.664-24.386 0.955-36.591 0.887zM517.257 601.463c34.526-1.428 67.327-21.939 84.042-52.137 18.9-32.851 17.173-76.239-4.443-107.403-19.557-29.545-55.315-47.335-90.69-44.949-34.528 1.601-67.182 22.329-83.761 52.595-18.518 32.714-16.794 75.666 4.574 106.645 19.436 29.557 54.951 47.394 90.278 45.248zM509.338 550.332c-22.196-0.837-42.472-17.771-47.18-39.49-5.589-22.175 5.949-47.114 26.494-57.173 20.211-10.855 47.28-5.59 62.006 11.991 15.063 16.775 16.677 43.645 3.804 62.144-9.785 14.725-27.47 23.561-45.124 22.528zM515.277 755.2c88.294-0.289 173.967-50.504 217.861-127.032 47.173-78.972 46.264-183.504-2.207-261.679-45.043-75.427-130.991-124.174-218.931-123.29-88.913-0.908-175.782 48.968-220.402 125.784-48.783 80.561-47.201 188.263 4.202 267.227 3.217 3.312 11.319 21.174 11.583 12.483 1.414-32.143 37.557-55.877 67.611-44.303 30.674 9.286 44.772 49.921 26.391 76.188-9.147 14.394-25.852 23.538-42.916 23.421 44.729 33.84 100.74 52.051 156.809 51.2zM507.699 703.932c-18.958-0.342-37.859-3.361-55.979-8.943 21.303-44.684 3.932-103.025-38.485-128.604-28.402-18.54-66.259-21.053-97.024-6.905-23.072-72.477-1.179-156.654 54.545-208.486 55.208-53.99 142.1-71.438 213.948-43.281 74.454 27.461 128.765 101.497 131.823 180.907 4.831 75.561-36.817 151.184-102.673 188.279-32.097 18.445-69.135 27.937-106.155 27.034z" />
<glyph unicode="&#xe92b;" glyph-name="Search16" d="M448 832c-176.352 0-320-143.648-320-320s143.648-320 320-320c176.352 0 320 143.648 320 320s-143.648 320-320 320zM448 768c141.764 0 256-114.236 256-256s-114.236-256-256-256c-141.764 0-256 114.236-256 256s114.236 256 256 256zM671.667 320.333c-0.023 0-0.050 0-0.077 0-17.675 0-32.003-14.328-32.003-32.003 0-9.022 3.733-17.171 9.738-22.989l192.008-192.008c5.801-5.802 13.816-9.391 22.669-9.391 17.704 0 32.056 14.352 32.056 32.056 0 8.853-3.589 16.868-9.391 22.669l-192 192c-5.819 5.966-13.937 9.667-22.919 9.667-0.028 0-0.057 0-0.085 0h0.004z" />
<glyph unicode="&#xe92c;" glyph-name="CheckBox" d="M960 0h-896v896h896v-896zM128 832v-768h768v768h-768z" />
<glyph unicode="&#xe92d;" glyph-name="CheckBoxChecked" d="M960 0h-896v896h896v-896zM128 832v-768h768v768h-768zM799.333 640.333c-8.646-0.26-16.392-3.91-21.993-9.66l-361.34-361.34-169.333 169.333c-5.819 5.966-13.937 9.667-22.919 9.667-0.028 0-0.057 0-0.085 0h0.004c-0.023 0-0.050 0-0.077 0-17.675 0-32.003-14.328-32.003-32.003 0-9.022 3.733-17.171 9.738-22.989l192.008-192.008c0.112-0.113 0.22-0.222 0.33-0.33l0.004-0.004c0.221-0.228 0.439-0.445 0.659-0.659l0.008-0.007c0.634-0.536 1.339-1.083 2.068-1.6l0.099-0.067c0.513-0.406 1.11-0.844 1.722-1.262l0.111-0.071c0.142-0.112 0.359-0.276 0.578-0.438l0.088-0.062c0.51-0.332 1.164-0.719 1.832-1.083l0.168-0.084c0.781-0.411 1.769-0.86 2.782-1.258l0.218-0.075c0.063-0.037 0.339-0.149 0.616-0.258l0.218-0.075c0.497-0.226 1.213-0.508 1.942-0.765l0.225-0.069c0.068-0.022 0.35-0.080 0.633-0.135l0.201-0.032c0.553-0.153 1.34-0.327 2.138-0.471l0.195-0.029c0.068-0.022 0.35-0.080 0.633-0.135l0.201-0.032c0.589-0.116 1.385-0.233 2.191-0.321l0.142-0.013c0.124-0.002 0.27-0.003 0.417-0.003s0.293 0.001 0.439 0.003h-0.022c0.24-0.006 0.522-0.010 0.805-0.010 1.184 0 2.353 0.064 3.504 0.189l-0.142-0.013c0.198-0.004 0.432-0.007 0.667-0.007s0.468 0.003 0.701 0.008l-0.035-0.001c1.527 0.158 2.889 0.393 4.218 0.711l-0.218-0.044c0.562 0.171 0.894 0.285 1.224 0.404l-0.224-0.070c0.958 0.256 1.68 0.484 2.391 0.736l-0.224-0.069c0.89 0.333 1.549 0.614 2.197 0.916l-0.197-0.083c1.217 0.532 2.201 1.033 3.155 1.583l-0.155-0.083c0.407 0.193 0.626 0.304 0.843 0.417l-0.177-0.084c0.805 0.495 1.457 0.934 2.092 1.397l-0.092-0.064c0.308 0.224 0.525 0.388 0.739 0.554l-0.073-0.054c0.692 0.526 1.289 1.018 1.867 1.529l-0.034-0.029c0.841 0.709 1.602 1.417 2.327 2.16l0.006 0.007 383.333 383.333c6.025 5.827 9.766 13.985 9.766 23.016 0 17.675-14.328 32.003-32.003 32.003-0.386 0-0.769-0.007-1.152-0.020l0.055 0.002z" />
<glyph unicode="&#xe92e;" glyph-name="Configuration" d="M490.769 792.951c22.561 1.352 45.25 0.534 67.652-2.458 25.828 33.769 51.655 67.538 77.483 101.308 46.487-12.925 90.909-33.271 131.072-60.006-8.693-41.62-17.385-83.24-26.078-124.86 16.919-14.995 32.402-31.627 46.080-49.63 42.166 5.643 84.332 11.287 126.498 16.93 23.638-42.084 40.709-87.846 50.244-135.168-35.59-23.279-71.179-46.558-106.769-69.837 1.352-22.561 0.532-45.25-2.458-67.652 33.769-25.828 67.538-51.655 101.308-77.483-12.925-46.487-33.271-90.909-60.006-131.072-41.62 8.693-83.24 17.385-124.86 26.078-14.995-16.919-31.627-32.402-49.63-46.080 5.644-42.166 11.287-84.332 16.93-126.498-42.084-23.638-87.846-40.709-135.168-50.244-23.279 35.59-46.558 71.179-69.837 106.769-22.561-1.352-45.25-0.534-67.652 2.458-25.828-33.769-51.655-67.538-77.483-101.308-46.487 12.925-90.909 33.271-131.072 60.006 8.693 41.62 17.385 83.24 26.078 124.86-16.919 14.995-32.402 31.627-46.080 49.63-42.166-5.643-84.332-11.287-126.498-16.93-23.638 42.084-40.709 87.846-50.244 135.168 35.59 23.279 71.179 46.558 106.769 69.837-1.352 22.561-0.534 45.25 2.458 67.652-33.769 25.828-67.538 51.655-101.308 77.483 12.925 46.487 33.271 90.909 60.006 131.072 41.62-8.693 83.24-17.385 124.86-26.078 14.995 16.919 31.627 32.402 49.63 46.080-5.643 42.166-11.287 84.332-16.93 126.498 42.084 23.638 87.846 40.709 135.168 50.244 23.279-35.59 46.558-71.179 69.837-106.769zM395.878 840.806c-18.629-5.551-36.902-12.312-54.545-20.48 3.138-35.664 12.854-71.209 11.605-106.974-5.843-30.762-39.267-41.878-56.661-64.99-15.78-23.253-46.393-26.917-71.234-17.91-23.974 5.014-47.947 10.029-71.921 15.043-9.689-17.659-18.021-36.040-25.122-54.886 27.454-23.002 59.479-41.269 83.9-67.447 17.566-25.888 1.881-57.375 5.871-86.016 5.314-27.557-13.75-51.838-37.631-63.043-20.497-13.415-40.995-26.829-61.492-40.244 5.575-19.334 12.613-38.246 21.026-56.525 35.664 3.138 71.209 12.854 106.974 11.605 30.75-5.854 41.884-39.264 64.99-56.661 23.283-15.747 26.894-46.408 17.91-71.234-5.014-23.974-10.029-47.947-15.043-71.921 17.681-9.648 36.018-18.069 54.886-25.122 22.969 27.468 41.292 59.393 67.379 83.9 25.929 17.548 57.416 1.897 86.084 5.871 27.555 5.308 51.849-13.739 63.043-37.631 13.415-20.497 26.829-40.995 40.244-61.492 19.331 5.583 38.253 12.594 56.525 21.026-3.138 35.664-12.854 71.209-11.605 106.974 5.856 30.757 39.266 41.881 56.661 64.99 15.742 23.287 46.413 26.891 71.234 17.91 23.974-5.014 47.947-10.029 71.921-15.043 9.639 17.684 18.082 36.014 25.122 54.886-27.454 23.002-59.479 41.269-83.9 67.447-17.565 25.888-1.883 57.375-5.871 86.016-5.312 27.556 13.742 51.849 37.631 63.043 20.497 13.415 40.995 26.829 61.492 40.244-5.58 19.333-12.591 38.254-21.026 56.525-35.664-3.138-71.209-12.854-106.974-11.605-30.753 5.857-41.89 39.259-64.99 56.661-23.283 15.747-26.894 46.408-17.91 71.234 5.014 23.974 10.029 47.947 15.043 71.921-17.681 9.648-36.018 18.069-54.886 25.122-23.002-27.454-41.269-59.479-67.447-83.9-25.888-17.565-57.375-1.882-86.016-5.871-27.551-5.302-51.851 13.74-63.043 37.631-13.415 20.497-26.829 40.995-40.244 61.492zM516.506 600.508c76.209-0.525 144.212-66.121 147.729-142.199 6.82-75.923-51.86-150.050-127.317-160.836-74.88-14.113-154.438 37.167-172.305 111.275-21.668 74.071 23.302 159.127 96.612 183.138 17.701 6.194 36.525 9.227 55.281 8.624zM510.089 549.376c-60.594 0.788-110.971-61.123-97.69-120.286 9.262-58.965 76.833-98.237 132.642-76.937 57.979 17.816 86.735 92.266 55.91 144.452-17.461 32.805-53.771 53.745-90.863 52.77z" />
<glyph unicode="&#xe92f;" glyph-name="User" d="M388.506 394.889c-54.75 30.31-99.055 79.667-118.647 140.151-41.097 113.186 10.581 250.334 117.214 306.927 38.912 21.845 83.558 33.655 128.205 32.7 129.911 1.229 248.081-110.865 252.177-240.981 7.987-97.007-47.582-191.829-130.799-238.933 128.546-41.984 235.93-149.026 270.268-281.259 5.734-20.207 9.626-40.755 12.015-61.508h-52.565c-1.57 11.196-2.662 22.46-5.461 33.451-31.881 148.48-167.799 265.557-319.147 276.002-5.393 0.478-10.718 0.819-16.043 1.024-9.284-0.546-18.569-0.478-27.853 0.137-157.901-3.959-303.991-125.269-335.872-280.303-2.321-10.035-3.14-20.139-4.506-30.31h-51.337c16.316 150.733 123.017 286.857 266.24 337.374 5.325 1.98 10.718 3.823 16.111 5.53zM525.926 413.798c98.372 5.939 186.368 91.409 190.532 191.42 9.216 105.813-76.39 208.418-182.545 217.088-8.192 0.887-16.384 1.297-24.576 1.161-109.431 1.365-207.121-98.509-202.069-208.077-0.751-102.673 86.426-195.038 188.689-200.909 2.389-0.273 4.779-0.478 7.1-0.614 4.71 0.068 9.421 0.068 14.131 0 2.935 0 5.803 0 8.738-0.068z" />
<glyph unicode="&#xe930;" glyph-name="Bottom" d="M976.828 908.663c30.583-1.57 51.814-32.768 47.172-62.054-0.41-135.509 0.819-271.155-0.614-406.596-3.891-29.969-35.362-47.787-63.761-43.213-287.812 0.273-575.693-0.546-863.437 0.41-30.788 2.799-49.766 34.953-44.988 63.966 0.41 134.827-0.819 269.653 0.614 404.412 3.891 29.969 35.362 47.787 63.761 43.213 287.061-0.068 574.191 0.205 861.252-0.137zM102.4 857.6c0-136.533 0-273.067 0-409.6 290.133 0 580.267 0 870.4 0 0 136.533 0 273.067 0 409.6-290.133 0-580.267 0-870.4 0zM976.828 345.463c30.379-1.57 51.678-32.495 47.172-61.645-0.41-101.513 0.819-203.093-0.614-304.606-3.891-29.696-34.953-47.718-63.283-43.213-287.949 0.273-575.898-0.546-863.846 0.41-30.515 2.731-49.766 34.543-45.056 63.488 0.41 100.83-0.819 201.728 0.614 302.49 3.891 29.696 34.953 47.718 63.283 43.213 287.198-0.068 574.464 0.205 861.73-0.137zM102.4 294.4c0-102.4 0-204.8 0-307.2 290.133 0 580.267 0 870.4 0 0 102.4 0 204.8 0 307.2-290.133 0-580.267 0-870.4 0zM819.2 192h51.2v-102.4h-51.2v102.4zM665.6 192h51.2v-102.4h-51.2v102.4zM512 192h51.2v-102.4h-51.2v102.4zM358.4 192h51.2v-102.4h-51.2v102.4zM204.8 192h51.2v-102.4h-51.2v102.4z" />
<glyph unicode="&#xe931;" glyph-name="Query" d="M1024 584.533v-443.733c-1.57-28.672-29.559-45.466-52.497-57.207-67.721-31.471-143.36-40.687-217.225-44.442-89.088-2.867-180.087 3.345-264.806 32.836-29.423 11.605-63.215 25.327-77.414 55.774-5.257 20.412-1.161 42.121-2.458 63.078v393.694l51.2-34.133v-405.026c27.17-23.142 63.351-31.403 97.212-39.868 97.143-20.275 198.246-20.89 296.004-4.369 40.004 8.192 81.988 16.794 115.575 41.233 7.1 6.144 1.365 17.886 3.209 26.351v381.679l51.2 34.133zM723.763 704c74.274-1.297 149.982-8.26 219.682-35.567 34.611-13.858 70.724-38.161 78.916-76.937 7.851-33.86-11.742-68.198-39.526-86.767-43.554-29.559-96.529-40.55-147.729-48.606-90.453-12.288-183.159-11.196-272.862 6.281-44.851 9.967-92.092 22.528-126.43 54.886-24.986 22.801-34.133 61.986-18.295 92.501 19.729 38.366 62.191 56.525 101.171 68.813 66.355 19.729 136.124 25.463 205.073 25.395zM710.178 652.8c-67.447-1.229-136.26-7.1-199.748-31.334-19.183-8.602-42.598-18.637-49.084-40.55-3.55-20.070 16.111-33.792 31.539-42.121 48.469-24.303 103.151-31.881 156.535-36.864 80.828-5.939 163.362-2.935 242.005 17.954 27.375 8.465 57.617 17.34 76.186 40.619 10.513 13.312 3.345 31.949-9.284 41.028-30.447 23.484-69.291 31.949-106.155 39.663-46.763 8.67-94.481 11.81-141.995 11.605zM76.8 908.8c-14.063 0-25.6-11.537-25.6-25.6v-921.6c0-14.063 11.537-25.6 25.6-25.6h768c14.063 0 25.6 11.537 25.6 25.6v102.4c0 0.137 0 0.273 0 0.341 0 14.063-11.537 25.6-25.6 25.6s-25.6-11.537-25.6-25.6c0-0.068 0-0.205 0-0.341v-76.8h-716.8v870.4h716.8v-179.2c0-0.137 0-0.273 0-0.341 0-14.063 11.537-25.6 25.6-25.6s25.6 11.537 25.6 25.6c0 0.068 0 0.205 0 0.341v204.8c0 14.063-11.537 25.6-25.6 25.6h-768zM102.4 268.8c-0.137 0-0.273 0-0.341 0-14.063 0-25.6-11.537-25.6-25.6s11.537-25.6 25.6-25.6c0.068 0 0.205 0 0.341 0h307.2c0.137 0 0.273 0 0.341 0 14.063 0 25.6 11.537 25.6 25.6s-11.537 25.6-25.6 25.6c-0.068 0-0.205 0-0.341 0h-307.2zM102.4 371.2c-0.137 0-0.273 0-0.341 0-14.063 0-25.6-11.537-25.6-25.6s11.537-25.6 25.6-25.6c0.068 0 0.205 0 0.341 0h307.2c0.137 0 0.273 0 0.341 0 14.063 0 25.6 11.537 25.6 25.6s-11.537 25.6-25.6 25.6c-0.068 0-0.205 0-0.341 0h-307.2zM102.4 473.6c-0.137 0-0.273 0-0.341 0-14.063 0-25.6-11.537-25.6-25.6s11.537-25.6 25.6-25.6c0.068 0 0.205 0 0.341 0h307.2c0.137 0 0.273 0 0.341 0 14.063 0 25.6 11.537 25.6 25.6s-11.537 25.6-25.6 25.6c-0.068 0-0.205 0-0.341 0h-307.2z" />
<glyph unicode="&#xe932;" glyph-name="Bottom16" d="M964.779 959.829c36.267-1.707 63.915-37.803 59.221-73.216-0.427-149.419 0.939-298.837-0.683-448.171-4.437-35.328-40.619-59.392-75.093-54.443-297.131 0.256-594.261-0.597-891.307 0.427-36.437 2.987-62.123 40.107-56.917 75.349 0.427 148.565-0.939 297.216 0.683 445.781 4.437 35.328 40.619 59.392 75.093 54.443 296.277-0.085 592.64 0.256 889.003-0.171zM64 896c0-149.333 0-298.667 0-448 298.667 0 597.333 0 896 0 0 149.333 0 298.667 0 448-298.667 0-597.333 0-896 0zM964.779 319.829c36.011-1.707 63.659-37.291 59.221-72.619-0.427-85.589 0.939-171.264-0.683-256.768-4.437-34.987-40.107-59.136-74.24-54.443-297.387 0.256-594.688-0.512-891.989 0.427-36.181 2.901-62.037 39.424-57.088 74.496 0.427 84.907-0.939 169.813 0.683 254.635 4.437 34.987 40.107 59.136 74.24 54.443 296.619-0.085 593.237 0.256 889.856-0.171zM64 256c0-85.333 0-170.667 0-256 298.667 0 597.333 0 896 0 0 85.333 0 170.667 0 256-298.667 0-597.333 0-896 0zM768 192h64v-128h-64v128zM576 192h64v-128h-64v128zM384 192h64v-128h-64v128zM192 192h64v-128h-64v128z" />
<glyph unicode="&#xe933;" glyph-name="MinusCircle16" d="M544 896c-264.704 0-480-215.296-480-480s215.296-480 480-480c264.704 0 480 215.296 480 480s-215.296 480-480 480zM544 832c230.144 0 416-185.856 416-416s-185.856-416-416-416c-230.144 0-416 185.856-416 416s185.856 416 416 416zM288 448c-0.171 0-0.341 0-0.427 0-17.579 0-32-14.421-32-32s14.421-32 32-32c0.085 0 0.256 0 0.427 0h512c0.171 0 0.341 0 0.427 0 17.579 0 32 14.421 32 32s-14.421 32-32 32c-0.085 0-0.256 0-0.427 0h-512z" />
<glyph unicode="&#xe934;" glyph-name="PlusCircle16" d="M543.488 704.512c-17.323-0.256-31.488-14.677-31.488-32 0-0.171 0-0.341 0-0.512v-224h-224c-0.171 0-0.341 0-0.427 0-17.579 0-32-14.421-32-32s14.421-32 32-32c0.085 0 0.256 0 0.427 0h224v-224c0-0.171 0-0.341 0-0.427 0-17.579 14.421-32 32-32s32 14.421 32 32c0 0.085 0 0.256 0 0.427v224h224c0.171 0 0.341 0 0.427 0 17.579 0 32 14.421 32 32s-14.421 32-32 32c-0.085 0-0.256 0-0.427 0h-224v224c0 0.171 0 0.341 0 0.512 0 17.579-14.421 32-32 32-0.171 0-0.341 0-0.512 0zM544 896c-264.704 0-480-215.296-480-480s215.296-480 480-480c264.704 0 480 215.296 480 480s-215.296 480-480 480zM544 832c230.144 0 416-185.856 416-416s-185.856-416-416-416c-230.144 0-416 185.856-416 416s185.856 416 416 416z" />
<glyph unicode="&#xe935;" glyph-name="Query16" d="M1024 661.333v-469.333c-0.256-41.984-37.717-70.741-72.448-86.784-75.349-33.963-159.659-39.936-241.237-41.216-84.651 0.427-172.032 5.717-250.709 39.68-34.901 15.872-73.045 43.093-75.52 84.992-0.085 86.443-0.085 386.219-0.085 472.661h64v-468.565c4.779-14.933 21.931-21.931 34.645-29.184 66.901-29.781 141.653-34.133 213.845-35.584 75.179 0.427 152.832 4.011 223.147 32.939 14.933 7.424 32.939 15.019 40.363 30.805v469.589h64zM711.253 832c78.933-1.536 160-11.947 231.339-47.787 39.509-20.139 76.203-55.381 80.811-101.547 5.461-44.715-22.699-86.528-59.136-109.824-56.32-36.864-124.16-50.432-190.123-57.515-88.064-7.765-178.517-2.645-262.912 25.088-46.677 16.043-95.573 41.728-117.589 88.32-19.115 38.827-8.533 87.552 21.248 117.931 38.912 40.704 94.635 59.051 148.224 71.168 48.64 10.411 98.475 14.507 148.139 14.165zM697.429 768c-68.011-1.451-137.899-9.387-199.851-39.253-22.272-11.605-48.384-28.928-49.579-56.747 1.28-28.331 28.16-45.653 50.859-57.429 62.976-29.781 133.888-37.632 202.837-38.571 69.12 0.427 140.117 7.936 203.691 36.779 23.467 11.605 51.115 28.16 54.528 56.747 0.853 27.904-25.173 46.251-47.189 58.027-60.843 30.208-129.877 38.4-197.035 40.363-6.059 0.171-12.203 0.085-18.261 0.085zM32 960c-17.579 0-32-14.421-32-32v-960c0-17.579 14.421-32 32-32h768c17.579 0 32 14.421 32 32v128c0 0.171 0 0.341 0 0.427 0 17.579-14.421 32-32 32s-32-14.421-32-32c0-0.085 0-0.256 0-0.427v-96h-704v896h704v-96c0-0.171 0-0.341 0-0.427 0-17.579 14.421-32 32-32s32 14.421 32 32c0 0.085 0 0.256 0 0.427v128c0 17.579-14.421 32-32 32h-768zM64 448c-0.171 0-0.341 0-0.427 0-17.579 0-32-14.421-32-32s14.421-32 32-32c0.085 0 0.256 0 0.427 0h320c0.171 0 0.341 0 0.427 0 17.579 0 32 14.421 32 32s-14.421 32-32 32c-0.085 0-0.256 0-0.427 0h-320zM64 320c-0.171 0-0.341 0-0.427 0-17.579 0-32-14.421-32-32s14.421-32 32-32c0.085 0 0.256 0 0.427 0h320c0.171 0 0.341 0 0.427 0 17.579 0 32 14.421 32 32s-14.421 32-32 32c-0.085 0-0.256 0-0.427 0h-320zM64 576c-0.171 0-0.341 0-0.427 0-17.579 0-32-14.421-32-32s14.421-32 32-32c0.085 0 0.256 0 0.427 0h320c0.171 0 0.341 0 0.427 0 17.579 0 32 14.421 32 32s-14.421 32-32 32c-0.085 0-0.256 0-0.427 0h-320z" />
<glyph unicode="&#xe936;" glyph-name="Top" d="M976.828 447.863c30.583-1.57 51.814-32.768 47.172-62.054-0.41-135.509 0.819-271.155-0.614-406.596-3.891-29.969-35.362-47.787-63.761-43.213-287.812 0.273-575.693-0.546-863.437 0.41-30.788 2.799-49.766 34.953-44.988 63.966 0.41 134.827-0.819 269.653 0.614 404.412 3.891 29.969 35.362 47.787 63.761 43.213 287.061-0.068 574.191 0.205 861.252-0.137zM102.4 396.8c0-136.533 0-273.067 0-409.6 290.133 0 580.267 0 870.4 0 0 136.533 0 273.067 0 409.6-290.133 0-580.267 0-870.4 0zM976.828 908.663c30.379-1.57 51.678-32.495 47.172-61.645-0.41-101.513 0.819-203.093-0.614-304.606-3.891-29.696-34.953-47.718-63.283-43.213-287.949 0.273-575.898-0.546-863.846 0.41-30.515 2.731-49.766 34.543-45.056 63.488 0.41 100.83-0.819 201.728 0.614 302.49 3.891 29.696 34.953 47.718 63.283 43.213 287.198-0.068 574.464 0.205 861.73-0.137zM102.4 857.6c0-102.4 0-204.8 0-307.2 290.133 0 580.267 0 870.4 0 0 102.4 0 204.8 0 307.2-290.133 0-580.267 0-870.4 0zM819.2 755.2h51.2v-102.4h-51.2v102.4zM665.6 755.2h51.2v-102.4h-51.2v102.4zM512 755.2h51.2v-102.4h-51.2v102.4zM358.4 755.2h51.2v-102.4h-51.2v102.4zM204.8 755.2h51.2v-102.4h-51.2v102.4z" />
<glyph unicode="&#xe937;" glyph-name="TopDiagram" d="M976.828 908.663c30.583-1.57 51.814-32.768 47.172-62.054-0.41-135.509 0.819-271.155-0.614-406.596-3.891-29.969-35.362-47.787-63.761-43.213-287.812 0.273-575.693-0.546-863.437 0.41-30.788 2.799-49.766 34.953-44.988 63.966 0.41 134.827-0.819 269.653 0.614 404.412 3.891 29.969 35.362 47.787 63.761 43.213 287.061-0.068 574.191 0.205 861.252-0.137zM102.4 857.6c0-136.533 0-273.067 0-409.6 290.133 0 580.267 0 870.4 0 0 136.533 0 273.067 0 409.6-290.133 0-580.267 0-870.4 0zM976.828 345.463c30.379-1.57 51.678-32.495 47.172-61.645-0.41-101.513 0.819-203.093-0.614-304.606-3.823-29.696-34.953-47.718-63.283-43.213-287.949 0.273-575.898-0.546-863.846 0.41-30.515 2.731-49.766 34.543-45.056 63.488 0.41 100.83-0.819 201.728 0.614 302.49 3.891 29.696 34.953 47.718 63.283 43.213 287.198-0.068 574.464 0.205 861.73-0.137zM102.4 294.4c0-102.4 0-204.8 0-307.2 290.133 0 580.267 0 870.4 0 0 102.4 0 204.8 0 307.2-290.133 0-580.267 0-870.4 0zM409.6 652.8c0.068-18.705 0.068-37.41-0.273-56.115-1.843-24.508-23.62-45.397-48.196-46.217-53.248-0.068-106.564-0.205-159.812 0.068-24.781 1.161-46.421 22.801-47.582 47.582-0.273 53.18-0.137 106.359-0.068 159.607 0.683 24.439 21.231 46.217 45.602 48.401 28.604 0.683 57.276 0.068 85.879 0.273 25.054 0 50.039 0 75.025 0 24.166-0.41 46.148-20.139 48.947-44.237 1.092-18.91 0.205-37.956 0.478-56.934v-1.229h102.4c14.063 0 25.6-11.537 25.6-25.6v-25.6h128.068c0 19.046-0.41 38.161 0.273 57.207 2.389 24.371 24.371 44.646 48.811 45.193 52.497 0 104.926 0 157.423 0 24.098-0.478 45.943-20.002 48.879-43.964 1.229-17.545 0.205-35.226 0.546-52.838-0.137-37.41 0.273-74.82-0.205-112.23-1.434-24.508-22.938-45.67-47.514-46.831-53.18-0.273-106.359-0.137-159.607-0.068-24.508 0.683-46.353 21.367-48.401 45.875-0.341 18.842-0.341 37.615-0.273 56.457h-153.6c-14.063 0-25.6 11.537-25.6 25.6v25.6h-76.8zM870.4 704h-153.6v-153.6c51.2 0 102.4 0 153.6 0v153.6zM204.8 755.2c0-51.2 0-102.4 0-153.6 51.2 0 102.4 0 153.6 0 0 51.2 0 102.4 0 153.6-51.2 0-102.4 0-153.6 0z" />
<glyph unicode="&#xe938;" glyph-name="Top16" d="M964.779 511.829c36.267-1.707 63.915-37.803 59.221-73.216-0.427-149.419 0.939-298.837-0.683-448.171-4.437-35.328-40.619-59.392-75.093-54.443-297.131 0.256-594.261-0.597-891.307 0.427-36.437 2.987-62.123 40.107-56.917 75.349 0.427 148.565-0.939 297.216 0.683 445.781 4.437 35.328 40.619 59.392 75.093 54.443 296.277-0.085 592.64 0.256 889.003-0.171zM64 448c0-149.333 0-298.667 0-448 298.667 0 597.333 0 896 0 0 149.333 0 298.667 0 448-298.667 0-597.333 0-896 0zM964.779 959.829c36.011-1.707 63.744-37.291 59.221-72.619-0.427-85.589 0.939-171.264-0.683-256.768-4.437-34.987-40.107-59.136-74.24-54.443-297.387 0.256-594.688-0.512-891.989 0.427-36.181 2.901-62.037 39.424-57.088 74.496 0.427 84.907-0.939 169.813 0.683 254.635 4.437 34.987 40.107 59.136 74.24 54.443 296.619-0.085 593.237 0.256 889.856-0.171zM64 896c0-85.333 0-170.667 0-256 298.667 0 597.333 0 896 0 0 85.333 0 170.667 0 256-298.667 0-597.333 0-896 0zM768 832h64v-128h-64v128zM576 832h64v-128h-64v128zM384 832h64v-128h-64v128zM192 832h64v-128h-64v128z" />
<glyph unicode="&#xe939;" glyph-name="TopDiagram16" d="M964.779 959.829c36.267-1.707 63.915-37.803 59.221-73.216-0.427-149.419 0.939-298.837-0.683-448.171-4.437-35.328-40.619-59.392-75.093-54.443-297.131 0.256-594.261-0.597-891.307 0.427-36.437 2.987-62.123 40.107-56.917 75.349 0.427 148.565-0.939 297.216 0.683 445.781 4.437 35.328 40.619 59.392 75.093 54.443 296.277-0.085 592.64 0.256 889.003-0.171zM64 896c0-149.333 0-298.667 0-448 298.667 0 597.333 0 896 0 0 149.333 0 298.667 0 448-298.667 0-597.333 0-896 0zM964.779 319.829c36.011-1.707 63.744-37.291 59.221-72.619-0.427-85.589 0.939-171.264-0.683-256.768-4.437-34.987-40.107-59.136-74.24-54.443-297.387 0.256-594.688-0.512-891.989 0.427-36.181 2.901-62.037 39.424-57.088 74.496 0.427 84.907-0.939 169.813 0.683 254.635 4.437 34.987 40.107 59.136 74.24 54.443 296.619-0.085 593.237 0.256 889.856-0.171zM64 256c0-85.333 0-170.667 0-256 298.667 0 597.333 0 896 0 0 85.333 0 170.667 0 256-298.667 0-597.333 0-896 0zM230.315 832c-16.128-0.427-32.256 0.853-48.299-0.853-28.331-3.925-51.797-29.184-53.675-57.856-0.597-31.573-0.171-63.317-0.341-94.976 0.427-16.128-0.853-32.256 0.853-48.299 3.925-28.331 29.184-51.797 57.856-53.675 31.573-0.597 63.317-0.171 94.976-0.341 16.128 0.427 32.256-0.853 48.299 0.853 28.331 3.925 51.797 29.184 53.675 57.856 0.427 23.040 0.256 46.165 0.171 69.291h96.171v-96c0-17.579 14.421-32 32-32h128.683c0.085-3.328-0.171-6.656 0.171-9.984 3.925-28.331 29.184-51.797 57.856-53.675 31.573-0.597 63.317-0.171 94.976-0.341 16.128 0.427 32.256-0.853 48.299 0.853 28.331 3.925 51.797 29.184 53.675 57.856 0.597 34.048 0.171 68.011 0.341 102.144-0.597 15.189 1.536 30.635-1.707 45.653-5.888 27.648-32.171 49.152-60.501 49.493h-91.477c-16.128-0.427-32.256 0.853-48.299-0.853-28.331-3.925-51.797-29.184-53.675-57.856-0.427-23.040-0.256-46.165-0.171-69.291h-96.171v96c0 17.579-14.421 32-32 32h-129.195c-0.171 4.864 0.512 9.728-0.512 14.507-5.888 27.648-32.171 49.152-60.501 49.493h-91.477zM192 768h128v-128h-128v128zM704 704h128v-128h-128v128z" />
<glyph unicode="&#xe93a;" glyph-name="FullCircle" d="M1024 448c0-282.77-229.23-512-512-512s-512 229.23-512 512c0 282.77 229.23 512 512 512s512-229.23 512-512z" />
<glyph unicode="&#xe93b;" glyph-name="AddTableCursor" d="M802.091 479.915c18.005-0.64 32.043-18.347 29.909-35.968-0.171-74.709 0.341-149.419-0.256-224.128-1.835-17.109-18.901-29.824-35.797-27.819-116.992 0.128-234.027-0.213-351.061 0.171-17.579 1.195-30.976 18.603-28.885 35.883 0.171 74.709-0.341 149.419 0.256 224.128 1.835 17.109 18.901 29.824 35.797 27.819 116.693-0.043 233.344 0.128 350.037-0.085zM448 448c0-74.667 0-149.333 0-224 117.333 0 234.667 0 352 0 0 74.667 0 149.333 0 224-117.333 0-234.667 0-352 0zM825.899 351.829c8.704-6.827 9.771-30.507-3.712-31.829-127.147 0-254.293 0-381.44 0-10.112 5.504-11.264 30.933 2.56 32 137.813 0 275.627 0 413.44 0-10.283-0.085-20.565-0.085-30.848-0.171zM480 416h288v-32h-288v32zM33.749 959.957c20.309-1.323 30.592-21.589 44.843-33.323 110.165-110.421 220.843-220.373 330.709-331.051 15.531-18.261 2.304-49.707-21.589-51.371-38.784-0.512-77.611-0.043-116.437-0.213 15.872-40.832 33.408-81.152 48.171-122.325 3.883-17.92-10.155-33.664-26.368-38.912-21.248-9.728-41.301-22.485-63.317-30.208-18.219-3.968-34.859 10.539-38.741 27.733-14.251 35.584-28.459 71.168-42.709 106.752-32.64-32.256-64.555-65.28-97.621-97.024-18.816-14.848-49.707-0.555-50.603 23.381-0.128 172.416-0.128 344.789 0 517.205 1.152 16.853 16.768 30.592 33.664 29.355zM32 416c42.667 42.667 85.333 85.333 128 128 21.333-53.333 42.667-106.667 64-160 21.333 10.667 42.667 21.333 64 32-21.333 53.333-42.667 106.667-64 160 53.333 0 106.667 0 160 0-117.333 117.333-234.667 234.667-352 352 0-170.667 0-341.333 0-512zM623.744 768.256c-8.661-0.128-15.744-7.339-15.744-16 0-0.085 0-0.171 0-0.256v-80h-80c-0.085 0-0.171 0-0.213 0-8.789 0-16-7.211-16-16s7.211-16 16-16c0.043 0 0.128 0 0.213 0h80v-80c0-0.085 0-0.171 0-0.213 0-8.789 7.211-16 16-16s16 7.211 16 16c0 0.043 0 0.128 0 0.213v80h80c0.085 0 0.171 0 0.213 0 8.789 0 16 7.211 16 16s-7.211 16-16 16c-0.043 0-0.128 0-0.213 0h-80v80c0 0.085 0 0.171 0 0.256 0 8.789-7.211 16-16 16-0.085 0-0.171 0-0.256 0z" />
<glyph unicode="&#xe93c;" glyph-name="ArrowCursor" d="M33.749 959.957c20.309-1.323 30.592-21.589 44.843-33.323 110.165-110.421 220.843-220.373 330.709-331.051 15.531-18.261 2.304-49.707-21.589-51.371-38.784-0.512-77.611-0.043-116.437-0.213 15.872-40.832 33.408-81.152 48.171-122.325 3.883-17.92-10.155-33.664-26.368-38.912-21.248-9.728-41.301-22.485-63.317-30.208-18.219-3.968-34.859 10.539-38.741 27.733-14.251 35.584-28.459 71.168-42.709 106.752-32.64-32.256-64.555-65.28-97.621-97.024-18.816-14.848-49.707-0.555-50.603 23.381-0.128 172.416-0.128 344.789 0 517.205 1.152 16.853 16.768 30.592 33.664 29.355zM32 416c42.667 42.667 85.333 85.333 128 128 21.333-53.333 42.667-106.667 64-160 21.333 10.667 42.667 21.333 64 32-21.333 53.333-42.667 106.667-64 160 53.333 0 106.667 0 160 0-117.333 117.333-234.667 234.667-352 352 0-170.667 0-341.333 0-512z" />
<glyph unicode="&#xe93d;" glyph-name="ArrowLeft16" d="M543.317 832.341c-8.277-0.256-16.213-3.755-22.016-9.643l-320-320c-5.973-6.059-9.387-14.165-9.387-22.699s3.413-16.64 9.387-22.699l320-320c6.059-5.973 14.165-9.387 22.699-9.387 17.579 0 32.085 14.507 32.085 32.085 0 8.533-3.413 16.64-9.387 22.699l-297.387 297.301 297.387 297.301c6.229 6.059 9.728 14.336 9.728 23.040 0 17.579-14.421 32-32 32-0.341 0-0.768 0-1.109 0zM256 512h576v-64h-576v64z" />
<glyph unicode="&#xe93e;" glyph-name="ArrowRight16" d="M479.659 832.341c-27.648 1.536-43.264-36.864-22.357-55.040 99.157-99.072 198.229-198.229 297.387-297.301-99.84-99.925-199.936-199.595-299.52-299.691-18.944-20.821 1.792-57.6 29.44-52.053 20.309 4.608 31.232 24.747 46.421 37.461 97.877 98.048 196.096 195.755 293.803 293.973 14.165 16.213 5.547 39.509-10.069 50.944-104.875 104.704-209.493 209.664-314.453 314.197-5.717 4.864-13.141 7.509-20.651 7.509zM192 512h576v-64h-576v64z" />
<glyph unicode="&#xe93f;" glyph-name="Configuration16" d="M490.155 810.411c23.552 1.451 47.275 0.512 70.741-2.56 26.965 35.243 53.931 70.571 80.896 105.813 48.555-13.568 94.891-34.816 136.875-62.635-9.131-43.435-18.176-86.955-27.307-130.389 17.664-15.616 33.877-33.024 48.128-51.797 44.032 5.888 88.064 11.691 132.096 17.579 24.747-43.947 42.411-91.648 52.48-141.056-37.205-24.32-74.325-48.64-111.531-72.96 1.451-23.552 0.597-47.275-2.56-70.656 35.243-26.965 70.571-53.931 105.813-80.896-13.568-48.555-34.731-94.891-62.635-136.875-43.435 9.131-86.955 18.176-130.389 27.307-15.616-17.664-33.024-33.877-51.797-48.213 5.888-44.032 11.691-87.979 17.579-132.011-43.947-24.661-91.648-42.496-141.056-52.48-24.32 37.205-48.555 74.325-72.875 111.531-23.552-1.451-47.36-0.597-70.741 2.56-26.965-35.243-53.931-70.571-80.896-105.813-48.555 13.568-94.891 34.816-136.875 62.635 9.131 43.435 18.176 86.955 27.307 130.389-17.664 15.616-33.877 33.024-48.128 51.797-44.032-5.888-88.064-11.776-132.096-17.664-24.576 43.947-42.581 91.733-52.395 141.141 37.12 24.32 74.325 48.555 111.445 72.875-1.451 23.552-0.597 47.36 2.56 70.741-35.243 26.965-70.571 53.931-105.813 80.896 13.568 48.555 34.816 94.805 62.635 136.875 43.435-9.131 86.955-18.176 130.389-27.307 15.616 17.664 33.024 33.877 51.797 48.128-5.888 44.032-11.691 88.064-17.579 132.096 43.947 24.661 91.648 42.496 141.056 52.395 24.32-37.12 48.555-74.325 72.875-111.445zM382.464 846.592c-12.459-4.011-24.747-8.704-36.779-13.995 2.901-36.096 13.909-72.192 10.752-108.459-7.083-35.925-45.824-49.067-65.792-76.544-20.565-25.856-56.491-25.429-85.163-16.043-20.736 4.267-41.472 8.619-62.208 12.971-7.168-13.568-13.483-27.563-19.115-41.813 27.563-23.552 60.928-41.131 84.224-69.035 20.48-30.464 2.389-67.157 7.68-100.693 3.755-32.853-22.016-57.856-48.896-71.595-17.749-11.605-35.413-23.211-53.163-34.816 4.608-14.592 9.813-29.013 16.043-43.008 36.096 2.901 72.192 13.909 108.459 10.752 35.925-7.083 49.067-45.824 76.544-65.877 25.941-20.48 25.344-56.405 16.043-85.077-4.267-20.736-8.619-41.472-12.971-62.208 13.568-7.083 27.477-13.568 41.813-19.115 23.552 27.563 41.216 60.843 69.035 84.224 30.464 20.48 67.157 2.389 100.693 7.68 32.853 3.669 57.856-22.016 71.595-48.896 11.605-17.749 23.211-35.413 34.816-53.163 14.592 4.523 29.013 9.899 43.008 16.043-2.901 36.096-13.909 72.192-10.752 108.459 7.083 35.925 45.824 49.067 65.792 76.544 20.565 25.856 56.491 25.429 85.163 16.043 20.736-4.267 41.472-8.619 62.208-12.971 7.083 13.568 13.568 27.477 19.115 41.728-27.563 23.552-60.928 41.216-84.224 69.12-20.48 30.464-2.389 67.157-7.68 100.693-3.669 32.853 22.016 57.856 48.981 71.595 17.664 11.605 35.413 23.125 53.077 34.731-4.608 14.592-9.813 29.099-16.043 43.093-36.096-2.901-72.192-13.909-108.459-10.752-35.925 7.083-49.067 45.824-76.544 65.792-25.856 20.565-25.429 56.491-16.043 85.163 4.267 20.736 8.619 41.472 12.971 62.208-13.568 7.168-27.563 13.483-41.813 19.115-23.552-27.563-41.131-60.928-69.035-84.224-30.464-20.48-67.157-2.389-100.693-7.68-32.853-3.755-57.856 22.016-71.595 48.896-11.605 17.749-23.211 35.413-34.816 53.163-2.048-0.683-4.181-1.365-6.229-2.048zM517.376 620.032c83.371-0.683 158.208-71.083 164.181-154.197 9.387-82.859-51.456-165.803-133.376-181.589-82.091-19.627-172.8 32.427-197.205 113.237-28.245 79.957 14.848 176.213 93.44 208.384 22.784 10.069 47.957 14.848 72.96 14.165zM510.379 556.117c-63.232 0.768-115.883-63.829-101.973-125.611 9.728-62.549 82.261-103.595 140.885-79.445 60.075 20.053 88.235 98.475 54.699 152.149-18.517 33.024-55.808 53.931-93.611 52.907z" />
<glyph unicode="&#xe940;" glyph-name="ResizeBottomRight16" d="M821.163 618.667c-17.152-0.256-31.232-14.421-31.232-31.659v-416.939h-416.427c-0.171 0-0.341 0-0.512 0-17.323 0-31.659-14.421-31.659-31.744 0-17.408 14.336-31.659 31.659-31.659h448.683c17.408 0 31.659 14.251 31.659 31.659v448.171c0 0.171 0 0.341 0 0.512 0 17.408-14.251 31.659-31.659 31.659-0.171 0-0.341 0-0.512 0z" />
<glyph unicode="&#xe941;" glyph-name="Arrow" d="M258.799 908.732c32.495-2.116 48.947-34.543 71.748-53.316 176.265-176.674 353.348-352.597 529.135-529.681 24.849-29.218 3.686-79.531-34.543-82.193-62.054-0.819-124.177-0.068-186.3-0.341 25.395-65.331 53.453-129.843 77.073-195.721 6.212-28.672-16.247-53.862-42.189-62.259-33.997-15.565-66.082-35.977-101.308-48.333-29.15-6.349-55.774 16.862-61.986 44.373-22.801 56.934-45.534 113.869-68.335 170.803-52.224-51.61-103.287-104.448-156.194-155.238-30.106-23.757-79.531-0.887-80.964 37.41-0.205 275.866-0.205 551.663 0 827.529 1.843 26.965 26.829 48.947 53.862 46.967zM256 38.4c68.267 68.267 136.533 136.533 204.8 204.8 34.133-85.333 68.267-170.667 102.4-256 34.133 17.067 68.267 34.133 102.4 51.2-34.133 85.333-68.267 170.667-102.4 256 85.333 0 170.667 0 256 0-187.733 187.733-375.467 375.467-563.2 563.2 0-273.067 0-546.133 0-819.2z" />
<glyph unicode="&#xe942;" glyph-name="Copy" d="M112.913 908.8c-28.399 4.369-58.709-15.77-61.303-45.329-0.819-236.681-0.137-473.293-0.41-709.973-4.574-28.467 13.722-59.665 43.622-63.351 67.243-1.297 134.554-0.205 201.865-0.546 3.482-0.546 6.963 0.341 10.513 0.546 0-30.788 0-61.645 0-92.433-4.369-28.399 15.701-58.778 45.329-61.303 186.163-0.819 372.326-0.137 558.558-0.41 28.399-4.369 58.778 15.701 61.303 45.329 0.887 237.363 0.137 474.726 0.41 712.158 4.574 29.218-16.862 60.211-47.309 61.577-70.042 0.137-140.015 0-210.057 0 2.116 30.515 0.341 61.44 1.365 92.023 4.574 29.218-16.862 60.211-47.309 61.577-185.481 0.341-371.098 0.068-556.578 0.137zM102.4 857.6h563.2v-102.4h-91.887c-68.267 0-136.533 0-204.8 0-28.399 4.369-58.778-15.701-61.303-45.329-0.614-179.746-0.341-359.424-0.273-539.238h-0.137v-29.833h-204.8v716.8zM358.4 704h563.2v-716.8h-563.2v716.8z" />
<glyph unicode="&#xe943;" glyph-name="Layout" d="M257.775 908.8c27.307-0.273 51.268-25.737 49.357-53.111 0-52.224 0.341-104.38-0.205-156.604-1.843-27.238-28.604-49.152-55.637-46.217-51.541 0-103.151-0.41-154.692 0.205-26.487 2.458-47.991 28.399-45.329 54.955 0 52.156-0.546 104.448 0.341 156.604 3.14 25.395 27.648 46.148 53.316 44.032 50.927 0.273 101.922 0.068 152.849 0.137zM102.4 857.6c0-51.2 0-102.4 0-153.6 51.2 0 102.4 0 153.6 0 0 51.2 0 102.4 0 153.6-51.2 0-102.4 0-153.6 0zM257.775 192c31.744-0.205 54.545-32.495 49.425-62.737-0.751-50.79 1.434-101.786-1.092-152.508-5.12-29.082-36.25-45.261-63.898-40.755-50.039 0.751-100.352-1.434-150.255 1.092-29.082 5.12-45.261 36.25-40.755 63.898 0.751 50.039-1.434 100.352 1.092 150.255 5.12 29.082 36.25 45.261 63.898 40.755 47.241 0 94.413 0 141.585 0zM102.4 140.8c0-51.2 0-102.4 0-153.6 51.2 0 102.4 0 153.6 0 0 51.2 0 102.4 0 153.6-51.2 0-102.4 0-153.6 0zM616.175 908.8c24.098-0.478 45.943-20.002 48.879-43.964 1.229-17.545 0.205-35.226 0.546-52.838-0.137-37.41 0.273-74.82-0.205-112.23-1.434-24.508-22.938-45.67-47.514-46.831-53.18-0.273-106.359-0.137-159.607-0.068-24.508 0.683-46.353 21.367-48.401 45.875-0.614 33.109-0.068 66.287-0.273 99.396 0.273 21.777-0.478 43.622 0.341 65.468 2.389 24.371 24.371 44.646 48.811 45.193 52.497 0 104.926 0 157.423 0zM460.8 857.6c0-51.2 0-102.4 0-153.6 51.2 0 102.4 0 153.6 0 0 51.2 0 102.4 0 153.6-51.2 0-102.4 0-153.6 0zM616.175 192c31.744-0.137 54.545-32.495 49.425-62.737-0.751-50.79 1.434-101.786-1.092-152.508-5.12-29.082-36.25-45.261-63.898-40.755-50.039 0.751-100.352-1.434-150.255 1.092-29.082 5.12-45.261 36.25-40.755 63.898 0.751 50.039-1.434 100.352 1.092 150.255 5.12 29.082 36.25 45.261 63.898 40.755 47.241 0 94.413 0 141.585 0zM460.8 140.8c0-51.2 0-102.4 0-153.6 51.2 0 102.4 0 153.6 0 0 51.2 0 102.4 0 153.6-51.2 0-102.4 0-153.6 0zM614.4 115.2h204.8v-51.2h-204.8v51.2zM256 832h204.8v-51.2h-204.8v51.2zM614.4 780.8h204.8v-51.2h-204.8v51.2zM974.575 908.8c24.098-0.478 45.943-20.002 48.879-43.964 1.229-17.545 0.205-35.226 0.546-52.838-0.137-37.41 0.273-74.82-0.205-112.23-1.434-24.508-22.938-45.67-47.514-46.831-53.18-0.273-106.359-0.137-159.607-0.068-24.439 0.683-46.217 21.231-48.401 45.602-0.683 28.604-0.068 57.276-0.273 85.879 0.205 26.214-0.341 52.361 0.273 78.507 2.048 24.371 23.689 45.056 48.196 45.875 52.702 0.205 105.404 0 158.106 0.068zM819.2 857.6c0-51.2 0-102.4 0-153.6 51.2 0 102.4 0 153.6 0 0 51.2 0 102.4 0 153.6-51.2 0-102.4 0-153.6 0zM974.575 192c31.744-0.137 54.545-32.495 49.425-62.737-0.751-50.79 1.434-101.786-1.092-152.508-5.12-29.082-36.25-45.261-63.898-40.755-50.039 0.751-100.352-1.434-150.255 1.092-29.082 5.12-45.261 36.25-40.755 63.898 0.751 50.039-1.434 100.352 1.092 150.255 5.12 29.082 36.25 45.261 63.898 40.755 47.241 0 94.413 0 141.585 0zM819.2 140.8c0-51.2 0-102.4 0-153.6 51.2 0 102.4 0 153.6 0 0 51.2 0 102.4 0 153.6-51.2 0-102.4 0-153.6 0zM257.775 550.4c62.874-4.847 48.538-77.756 49.357-121.515-5.393-43.486 18.022-105.404-30.72-130.321-38.229-8.602-78.507-2.185-117.555-4.164-35.635 2.253-84.378-11.264-103.083 29.969-9.421 32.973-2.389 68.471-4.574 102.537 3.823 35.635-10.308 77.141 13.995 107.383 30.447 27.785 74.957 11.947 112.23 16.111 26.761 0.068 53.589 0 80.35 0zM102.4 499.2c0-51.2 0-102.4 0-153.6 51.2 0 102.4 0 153.6 0 0 51.2 0 102.4 0 153.6-51.2 0-102.4 0-153.6 0zM616.175 550.4c61.372-4.233 49.152-75.025 49.425-117.828-5.939-44.442 18.569-107.315-30.174-133.666-37.956-9.148-78.302-2.458-117.282-4.506-37.751 1.365-92.501-10.786-106.633 37.001-4.233 57.617-1.024 115.917-1.57 173.807 6.212 51.951 64.444 46.217 102.946 45.193 34.406 0 68.881 0 103.287 0zM460.8 499.2c0-51.2 0-102.4 0-153.6 51.2 0 102.4 0 153.6 0 0 51.2 0 102.4 0 153.6-51.2 0-102.4 0-153.6 0zM179.2 345.6h51.2v-204.8h-51.2v204.8zM537.6 704h51.2v-204.8h-51.2v204.8zM896 345.6h51.2v-204.8h-51.2v204.8zM974.575 550.4c61.372-4.233 49.152-75.025 49.425-117.828-5.939-44.442 18.569-107.315-30.174-133.666-37.956-9.148-78.302-2.458-117.282-4.506-37.683 1.434-92.297-10.786-106.564 36.727-4.301 57.481-1.161 115.575-1.707 173.329 5.461 52.292 63.966 47.104 102.537 45.943 34.611 0 69.154-0.068 103.765 0zM819.2 499.2c0-51.2 0-102.4 0-153.6 51.2 0 102.4 0 153.6 0 0 51.2 0 102.4 0 153.6-51.2 0-102.4 0-153.6 0z" />
<glyph unicode="&#xe944;" glyph-name="Paste" d="M358.4 908.8c-54.75 1.434-103.834-47.718-102.4-102.4-54.409-0.614-108.954 1.229-163.226-0.956-28.809-4.506-45.807-34.953-41.574-62.532 0.205-202.615-0.41-405.367 0.41-607.983 2.594-29.491 32.7-49.562 61.030-45.329 64.853 0.341 129.775-0.478 194.56 0.546 0-31.061 0-62.123 0-93.184-4.233-28.399 16.247-58.505 45.739-60.689 186.231-0.751 372.668-0.068 558.899-0.273 28.399-4.233 58.505 16.247 60.689 45.739 0.751 203.298 0.068 406.801 0.273 610.099 4.369 29.15-17.476 59.665-47.718 60.826-86.767 0.137-173.534 0-260.301 0 0.068 2.116 1.092 4.096 0.819 6.281-0.819 35.84 1.707 72.021-1.365 107.725-5.461 27.921-35.157 43.759-62.123 39.731h-141.312c1.024 55.091-47.241 103.492-102.4 102.4zM358.4 857.6c34.202 1.297 61.167-37.137 47.991-68.813-10.581-33.314-57.549-44.851-82.398-20.275-26.829 22.46-19.797 70.178 12.288 84.036 6.827 3.413 14.473 4.915 22.118 5.052zM102.4 755.2h167.322c26.146-47.855 92.706-66.014 139.332-37.751 15.701 8.943 28.945 22.118 38.025 37.751h167.322v-102.4c-5.393 1.638-8.806 1.229-11.332 0-78.302 0-156.604-0.068-234.906 0-28.399 4.233-58.505-16.247-60.689-45.739-0.546-148.753-0.205-297.643-0.137-446.396-1.297-2.185-1.707-5.393-0.137-10.513 4.233-16.93-18.773-6.554-28.672-9.353h-176.128v614.4zM358.4 601.6h563.2v-614.4h-563.2v614.4zM639.59 499.61c-13.858-0.205-25.19-11.742-25.19-25.6 0-0.137 0-0.273 0-0.41v-347.75l-161.041 161.109c-4.847 4.915-11.469 7.714-18.432 7.714 0 0-0.068 0-0.068 0-14.063 0-25.6-11.537-25.6-25.6 0-6.963 2.799-13.585 7.782-18.432l202.684-202.615c4.847-6.281 12.356-9.967 20.275-9.967s15.428 3.686 20.275 9.967l202.684 202.615c4.779 4.847 7.509 11.332 7.509 18.159 0 14.063-11.605 25.668-25.668 25.668-6.827 0-13.312-2.731-18.159-7.509l-161.041-161.109v347.75c0 0.137 0 0.273 0 0.41 0 14.063-11.537 25.6-25.6 25.6-0.137 0-0.273 0-0.41 0z" />
<glyph unicode="&#xe945;" glyph-name="Redo" d="M639.727 857.873c0 0-0.068 0-0.068 0-14.063 0-25.6-11.537-25.6-25.6 0-6.963 2.799-13.585 7.782-18.432l212.309-212.241h-654.95c-14.063 0-25.6-11.537-25.6-25.6v-460.8c0-0.137 0-0.273 0-0.341 0-14.063 11.537-25.6 25.6-25.6s25.6 11.537 25.6 25.6c0 0.068 0 0.205 0 0.341v435.2h629.35l-212.309-212.241c-4.779-4.847-7.509-11.332-7.509-18.159 0-14.063 11.605-25.668 25.668-25.668 6.827 0 13.312 2.731 18.159 7.509l256 256c4.779 4.847 7.509 11.332 7.509 18.159s-2.731 13.312-7.509 18.159l-256 256c-4.847 4.915-11.469 7.714-18.432 7.714z" />
<glyph unicode="&#xe946;" glyph-name="Script" d="M391.578 908.8c-82.193-0.068-165.82-6.212-244.531-31.744-36.523-12.698-76.663-32.29-91.341-70.793-3.413-8.67-4.506-17.818-4.233-26.829-0.068 0.478-0.273 0.478-0.273 0.956 0.273-206.37-0.546-387.209 0.41-593.579 12.971-40.96 60.348-53.658 96.393-66.697 67.994-21.163 139.469-27.989 210.398-30.242v51.2c-84.105 3.959-172.169 10.035-247.876 50.108-8.26 2.321-7.168 24.644-8.124 41.916v462.916c39.936-14.541 81.169-23.484 122.812-30.31 1.434-0.273 2.935-0.751 4.369-1.024 6.758-1.092 13.517-1.502 20.275-2.389 18.022-2.389 35.908-5.188 53.999-6.417 1.092-0.068 2.116-0.068 3.209-0.137 28.194-2.185 56.525-2.867 84.787-2.662 0.205 0 0.478 0 0.683 0 0.887 0 1.775 0.137 2.662 0.137 25.259 0.273 50.449 1.57 75.571 3.755 6.622 0.41 13.244 0.41 19.797 0.887 8.738 0.819 17.34 2.799 26.078 3.891 3.755 0.478 7.509 0.683 11.196 1.161 2.458 0.41 4.847 1.229 7.236 1.638 44.373 6.554 88.474 15.633 130.526 31.471v-145.613h51.2v229.308c-0.068-0.273-0.205-0.478-0.273-0.751 0.273 7.714-0.41 15.497-2.935 23.142-11.81 38.229-49.903 59.324-85.060 72.294-75.844 26.487-157.082 33.178-236.954 34.406zM665.6 550.4c-82.466 0-164.864-0.068-247.33 0-27.716 3.823-56.457-16.111-59.46-44.51-0.887-138.65-0.341-277.367-0.41-416.017 0-14.268 0-28.535 0-42.803-3.959-28.262 16.998-57.617 46.148-59.597 186.505-0.683 373.077-0.068 559.582-0.273 27.716-3.823 56.457 16.111 59.46 44.51 0.956 152.917 0.137 305.903 0.41 458.82 4.164 28.877-18.022 58.709-47.855 59.733-103.492 0.205-207.053 0.137-310.545 0.137zM376.832 857.6c61.918 0.205 124.245-3.959 184.934-17.203 32.836-8.192 68.062-16.384 93.935-39.458 11.674-9.421 13.38-27.921 2.048-38.298-23.142-22.869-56.252-30.993-86.699-39.322-20.207-4.574-40.687-7.919-61.167-10.786-6.076-0.819-12.151-1.638-18.295-2.253-15.36-1.843-30.788-3.209-46.285-4.164-19.661-1.024-39.322-1.638-59.051-1.57-4.233 0-8.465-0.205-12.629-0.137-20.275 0.273-40.414 1.502-60.553 2.662-6.69 0.478-13.449 0.478-20.139 1.092-54.34 5.734-110.182 13.38-159.744 37.683-14.882 7.987-34.611 21.436-29.969 40.96 8.67 22.118 33.519 31.061 53.862 39.458 70.383 24.439 145.681 30.037 219.75 31.334zM409.6 499.2h563.2v-460.8h-563.2v460.8zM512 396.8h358.4v-51.2h-358.4v51.2zM512 294.4h358.4v-51.2h-358.4v51.2zM512 192h256v-51.2h-256v51.2z" />
<glyph unicode="&#xe947;" glyph-name="Undo" d="M383.454 857.873c-6.622-0.205-12.971-3.004-17.613-7.714l-256-256c-4.779-4.847-7.509-11.332-7.509-18.159s2.731-13.312 7.509-18.159l256-256c4.847-4.779 11.332-7.509 18.159-7.509 14.063 0 25.668 11.605 25.668 25.668 0 6.827-2.731 13.312-7.509 18.159l-212.309 212.241h629.35v-435.2c0-0.137 0-0.273 0-0.341 0-14.063 11.537-25.6 25.6-25.6s25.6 11.537 25.6 25.6c0 0.068 0 0.205 0 0.341v460.8c0 14.063-11.537 25.6-25.6 25.6h-654.95l212.309 212.241c4.983 4.847 7.782 11.469 7.782 18.432 0 14.063-11.537 25.6-25.6 25.6-0.273 0-0.614 0-0.887 0z" />
<glyph unicode="&#xe948;" glyph-name="Note" d="M68.13 960c-29.696 5.257-64.239-11.878-67.584-44.1-1.229-303.855-0.205-607.846-0.546-911.77-5.257-29.696 11.878-64.239 44.1-67.584 286.788-1.229 573.713-0.205 860.57-0.546 29.696-5.257 64.239 11.878 67.584 44.1 1.229 304.811 0.205 609.758 0.546 914.569 5.257 29.969-14.882 63.488-46.967 65.058-285.833 0.478-571.802 0.137-857.702 0.273zM51.2 908.8h117.35l-117.35-117.35v117.35zM241.050 908.8h490.701l189.85-189.85v-541.901l-18.159-18.091-171.691-171.759h-490.701l-18.091 18.159-171.759 171.691v541.901l18.159 18.091 171.691 171.759zM804.25 908.8h117.35v-117.35l-117.35 117.35zM485.99 601.6c-6.622-0.068-13.039-2.799-17.749-7.441l-102.4-102.4c-4.779-4.847-7.441-11.332-7.441-18.159v-153.6c0-0.137 0-0.273 0-0.341 0-14.063 11.537-25.6 25.6-25.6s25.6 11.537 25.6 25.6c0 0.068 0 0.205 0 0.341v51.2h153.6v-51.2c0-0.137 0-0.273 0-0.341 0-14.063 11.537-25.6 25.6-25.6s25.6 11.537 25.6 25.6c0 0.068 0 0.205 0 0.341v153.6c0 6.827-2.662 13.312-7.441 18.159l-102.4 102.4c-4.915 4.847-11.605 7.578-18.569 7.441zM486.4 539.75l76.8-76.8v-40.55h-153.6v40.55l76.8 76.8zM51.2 104.55l117.35-117.35h-117.35v117.35zM921.6 104.55v-117.35h-117.35l117.35 117.35z" />
<glyph unicode="&#xe949;" glyph-name="Type" d="M56.934 960c-0.205 0-0.41-0.137-0.683-0.137-4.847-0.068-9.421-0.205-14.131-1.297-4.915-1.024-9.284-2.799-13.722-5.12-1.775-0.887-3.55-1.57-5.188-2.662-3.891-2.594-6.963-5.734-10.035-9.216-1.911-2.048-3.959-3.823-5.461-6.212-3.209-5.188-5.325-11.059-6.349-17.203-0.137-0.887-0.751-1.434-0.819-2.253 0-0.137 0-0.205 0-0.273 0-0.137-0.137-0.273-0.137-0.41-0.956-85.538-0.137-171.145-0.41-256.683-0.137-1.297 0.41-2.526 0.41-3.891-0.205-216.678-0.137-433.425-0.41-650.103-5.257-29.764 11.674-64.58 44.1-67.994 303.787-1.229 607.573-0.205 911.36-0.546 29.764-5.257 64.58 11.674 67.994 44.1 1.229 304.742 0.205 609.417 0.546 914.159 5.325 30.106-14.677 63.829-46.967 65.468-270.95 0.41-542.037 0.273-813.056 0.273-35.635 0-71.339 0-107.042 0zM51.2 908.8h512v-256h-512v256zM613.854 908.8h358.946v-921.6h-921.6v614.673c168.755-0.478 337.51-0.137 506.266-0.273 26.897-2.935 53.794 17.613 56.525 44.783 0.956 85.538 0.137 171.145 0.41 256.683 0.205 1.911-0.478 3.823-0.546 5.734zM179.2 806.4c-0.137 0-0.273 0-0.341 0-14.063 0-25.6-11.537-25.6-25.6s11.537-25.6 25.6-25.6c0.068 0 0.205 0 0.341 0h256c0.137 0 0.273 0 0.341 0 14.063 0 25.6 11.537 25.6 25.6s-11.537 25.6-25.6 25.6c-0.068 0-0.205 0-0.341 0h-256zM204.8 345.6v-51.2h256v51.2h-256zM563.2 345.6v-51.2h256v51.2h-256z" />
<glyph unicode="&#xe94a;" glyph-name="Note16" d="M77.995 960c-35.755 5.632-74.155-19.2-77.483-56.491-1.109-296.448-0.171-592.981-0.512-889.515-5.632-35.755 19.2-74.155 56.491-77.483 275.115-1.109 550.315-0.171 825.515-0.512 35.755-5.632 74.155 19.2 77.483 56.491 1.109 296.448 0.171 592.981 0.512 889.515 5.973 36.779-20.651 76.032-59.136 77.824-274.261 0.427-548.608 0.085-822.869 0.171zM64 896h146.688l-146.688-146.688v146.688zM301.312 896h357.376l237.312-237.312v-421.376l-22.699-22.613-214.613-214.699h-357.376l-22.613 22.699-214.699 214.613v421.376l22.699 22.613 214.613 214.699zM749.312 896h146.688v-146.688l-146.688 146.688zM479.488 640c-8.277-0.085-16.299-3.499-22.187-9.301l-128-128c-5.973-6.059-9.301-14.165-9.301-22.699v-192c0-0.171 0-0.341 0-0.427 0-17.579 14.421-32 32-32s32 14.421 32 32c0 0.085 0 0.256 0 0.427v64h192v-64c0-0.171 0-0.341 0-0.427 0-17.579 14.421-32 32-32s32 14.421 32 32c0 0.085 0 0.256 0 0.427v192c0 8.533-3.328 16.64-9.301 22.699l-128 128c-6.144 6.059-14.507 9.472-23.211 9.301zM480 562.688l96-96v-50.688h-192v50.688l96 96zM64 146.688l146.688-146.688h-146.688v146.688zM896 146.688v-146.688h-146.688l146.688 146.688z" />
<glyph unicode="&#xe94b;" glyph-name="Type16" d="M71.168 960c-1.877 0.171-3.669-0.512-5.461-0.512-5.632-0.171-11.008-0.171-16.384-1.621-6.144-1.621-11.691-4.437-17.152-7.68-1.792-1.109-3.84-1.621-5.547-2.816-4.437-3.243-7.765-7.509-11.264-11.691-2.219-2.645-4.949-4.693-6.656-7.68-4.352-7.253-7.339-15.36-8.192-23.979 0-0.171 0-0.256 0-0.341-1.195-106.837-0.171-213.675-0.512-320.512-0.085-1.109 0.427-2.133 0.341-3.157 0-188.501-0.171-377.003-0.341-565.504-5.717-35.84 18.859-74.667 56.32-77.995 296.363-1.109 592.811-0.171 889.173-0.512 35.84-5.717 74.667 18.859 77.995 56.32 1.109 296.363 0.171 592.811 0.512 889.173 6.059 36.864-20.48 76.544-59.136 78.336-85.675 0.085-171.264 0-256.853 0-209.835 0.171-419.669 0.085-629.504 0.171-2.475 0-4.864 0-7.339 0zM64 896h640v-320h-640v320zM767.317 896h192.683v-896h-896v512.341c210.944-0.597 421.888-0.171 632.832-0.341 33.621-3.669 67.243 22.016 70.656 55.979 1.195 106.923 0.171 213.931 0.512 320.853 0.256 2.389-0.597 4.779-0.683 7.168zM224 768c-0.171 0-0.341 0-0.427 0-17.579 0-32-14.421-32-32s14.421-32 32-32c0.085 0 0.256 0 0.427 0h320c0.171 0 0.341 0 0.427 0 17.579 0 32 14.421 32 32s-14.421 32-32 32c-0.085 0-0.256 0-0.427 0h-320zM192 320v-64h256v64h-256zM576 320v-64h256v64h-256z" />
<glyph unicode="&#xe94c;" glyph-name="LineMode" d="M512 857.6v-153.6c-49.562 0-99.123 0-148.685 0-27.034 2.731-53.658-18.569-55.842-45.875-0.273-52.975-0.137-105.95-0.137-158.925h-76.937v76.8c0 14.063-11.537 25.6-25.6 25.6h-153.6v-51.2h128v-76.8c0-14.063 11.537-25.6 25.6-25.6h102.537c0-34.133-0.137-68.267-0.137-102.4h-102.4c-14.063 0-25.6-11.537-25.6-25.6v-179.2h-128v-51.2h153.6c14.063 0 25.6 11.537 25.6 25.6v179.2h77.346c0.137-25.259 19.729-48.879 45.329-50.927 44.442-0.273 88.883-0.137 133.325-0.137v-128.137c0-14.063 11.537-25.6 25.6-25.6h76.8v-102.4h51.2v128c0 14.063-11.537 25.6-25.6 25.6h-76.8v102.537c41.028 0.068 82.057-0.068 123.085-0.137 27.034-2.731 53.658 18.569 55.842 45.875 0 1.775 0 3.55 0 5.325h128.273v-128c0-14.063 11.537-25.6 25.6-25.6h102.4v51.2h-76.8v128c0 14.063-11.537 25.6-25.6 25.6h-153.873c0.137 51.2 0.205 102.4 0.137 153.6h102.537c14.063 0 25.6 11.537 25.6 25.6v179.2h128v51.2h-153.6c-14.063 0-25.6-11.537-25.6-25.6v-179.2h-76.937c0 32.905 0.068 65.809 0.137 98.645 2.389 27.648-20.685 54.067-48.538 54.818-35.021 0.068-70.042 0-105.062 0v153.737h-51.2zM358.4 652.8h307.2v-153.6h-307.2v153.6zM409.6 601.6v-51.2h204.8v51.2h-204.8zM358.4 448h307.2v-153.6h-307.2v153.6z" />
<glyph unicode="&#xe94d;" glyph-name="Projects" d="M874.633 959.795c31.607-1.57 52.019-34.406 46.967-64.102-0.341-305.084 0.683-610.236-0.478-915.319-3.209-31.812-37.001-49.493-66.492-44.373-235.93 0.341-471.927-0.683-707.857 0.478-31.812 3.209-49.493 37.001-44.373 66.492 0.341 304.196-0.683 608.461 0.478 912.657 3.209 31.812 37.001 49.493 66.492 44.373 235.042-0.137 470.153 0.273 705.263-0.205zM153.6-12.8c238.933 0 477.867 0 716.8 0 0 307.2 0 614.4 0 921.6-238.933 0-477.867 0-716.8 0 0-307.2 0-614.4 0-921.6zM768 601.6h-512v204.8h512v-204.8zM307.2 755.2v-102.4h409.6v102.4h-409.6zM153.6 499.2c-0.137 0-0.273 0-0.341 0-14.063 0-25.6-11.537-25.6-25.6s11.537-25.6 25.6-25.6c0.068 0 0.205 0 0.341 0h716.8c0.137 0 0.273 0 0.341 0 14.063 0 25.6 11.537 25.6 25.6s-11.537 25.6-25.6 25.6c-0.068 0-0.205 0-0.341 0h-716.8zM153.6 396.8c-0.137 0-0.273 0-0.341 0-14.063 0-25.6-11.537-25.6-25.6s11.537-25.6 25.6-25.6c0.068 0 0.205 0 0.341 0h716.8c0.137 0 0.273 0 0.341 0 14.063 0 25.6 11.537 25.6 25.6s-11.537 25.6-25.6 25.6c-0.068 0-0.205 0-0.341 0h-716.8zM153.6 294.4c-0.137 0-0.273 0-0.341 0-14.063 0-25.6-11.537-25.6-25.6s11.537-25.6 25.6-25.6c0.068 0 0.205 0 0.341 0h716.8c0.137 0 0.273 0 0.341 0 14.063 0 25.6 11.537 25.6 25.6s-11.537 25.6-25.6 25.6c-0.068 0-0.205 0-0.341 0h-716.8zM153.6 192c-0.137 0-0.273 0-0.341 0-14.063 0-25.6-11.537-25.6-25.6s11.537-25.6 25.6-25.6c0.068 0 0.205 0 0.341 0h716.8c0.137 0 0.273 0 0.341 0 14.063 0 25.6 11.537 25.6 25.6s-11.537 25.6-25.6 25.6c-0.068 0-0.205 0-0.341 0h-716.8zM153.6 89.6c-0.137 0-0.273 0-0.341 0-14.063 0-25.6-11.537-25.6-25.6s11.537-25.6 25.6-25.6c0.068 0 0.205 0 0.341 0h716.8c0.137 0 0.273 0 0.341 0 14.063 0 25.6 11.537 25.6 25.6s-11.537 25.6-25.6 25.6c-0.068 0-0.205 0-0.341 0h-716.8z" />
</font>
</defs>
</svg>
